请选择 进入手机版 | 继续访问电脑版

中国高清论坛

 找回密码
 立即注册
搜索
查看: 1640|回复: 421

[动画片] 蒸汽男孩/蒸汽少年 Steamboy.2004.JAPANESE.1080p.BluRay.x264.DTS-WiKi 10.83 GiB

  [复制链接]

超级版主

高清币
15557
金钱
36287
鲜花
-88
在线时间
11409 小时
最后登录
2019-4-19
发表于 5 天前 | 显示全部楼层 |阅读模式



◎译  名 蒸汽男孩/蒸汽少年
◎片  名 Steamboy/スチームボーイ
◎年  代 2004
◎产  地 日本
◎类  别 动画
◎语  言 日语
◎IMDb评分 6.9/10 from 15567 users
◎IMDB链接 https://www.imdb.com/title/tt0348121/
◎片  长 2 h 6 min
◎导  演 大友克洋 Katsuhiro Ôtomo
◎主  演 铃木杏 Anne Suzuki
       小西真奈美 Manami Konishi
       儿玉清 Kiyoshi Kodama
       泽村一树 Ikki Sawamura

◎简  介

  十九世纪中叶,维多利亚时代的大英帝国,工业革命方兴未艾,理性与进步似乎凌驾一切,标志了人类文明昂首进步的无限可能。

  就在第一次万国博览会揭幕前夕,住在伦敦的13岁少年雷•史汀(铃木杏 Anne Suzuki 配音)突然收到发明家祖父(中村嘉葎雄 Katsuo Nakamura 配音)从美国寄来,称之为“蒸气球”(Steam Ball)的神秘动力装置。同时间,英国情报组织,以及一个名为奥哈拉基金会的黑暗组织,都觊觎“蒸气球”所蕴含的惊人力量。雷因此而突遭一伙身份不明的人的袭击,雷只好带着金属球,踏上逃亡之路。为寻求真相雷来到美国,从父亲艾迪(津嘉山正种 Masatane Tsukayama 配音)口中雷得知“蒸气球”依据全新机械理论所设计,可以产生一种划时代的庞大能源,足以供应整个国家所需。路途中,雷邂逅了美丽的富家千金斯嘉丽(小西真奈美 Manami Konishi 配音)。从小娇生惯养,却偏偏爱上了雷,自愿跟随孤独的雷一起踏上了冒险之旅……所谓的科学,究竟是人们的希望?还是将会毁灭一切。
  本片的制作经历了整整9年,总制作费高达24亿日元。

  1. Video
  2. ID : 1
  3. Format : AVC
  4. Format/Info : Advanced Video Codec
  5. Format profile : High@L4.1
  6. Format settings : CABAC / 4 Ref Frames
  7. Format settings, CABAC : Yes
  8. Format settings, ReFrames : 4 frames
  9. Codec ID : V_MPEG4/ISO/AVC
  10. Duration : 2 h 6 min
  11. Bit rate : 10.3 Mb/s
  12. Width : 1 920 pixels
  13. Height : 1 038 pixels
  14. Display aspect ratio : 1.85:1
  15. Frame rate mode : Constant
  16. Frame rate : 23.976 FPS
  17. Color space : YUV
  18. Chroma subsampling : 4:2:0
  19. Bit depth : 8 bits
  20. Scan type : Progressive
  21. Bits/(Pixel*Frame) : 0.216
  22. Stream size : 9.10 GiB (84%)
  23. Writing library : x264 core 116 r2074 2641b9e
  24. Encoding settings : cabac=1 / ref=4 / deblock=1:-1:-1 / analyse=0x3:0x113 / me=umh / subme=9 / psy=1 / psy_rd=1.00:0.10 / mixed_ref=1 / me_range=48 / chroma_me=1 / trellis=2 / 8x8dct=1 / cqm=0 / deadzone=21,11 / fast_pskip=0 / chroma_qp_offset=-5 / threads=12 / sliced_threads=0 / nr=0 / decimate=0 / interlaced=0 / bluray_compat=0 / constrained_intra=0 / bframes=8 / b_pyramid=2 / b_adapt=2 / b_bias=0 / direct=3 / weightb=1 / open_gop=0 / weightp=2 / keyint=250 / keyint_min=23 / scenecut=40 / intra_refresh=0 / rc_lookahead=48 / rc=2pass / mbtree=1 / bitrate=10306 / ratetol=1.0 / qcomp=0.60 / qpmin=0 / qpmax=69 / qpstep=4 / cplxblur=20.0 / qblur=0.5 / ip_ratio=1.40 / aq=1:0.90
  25. Language : English
  26. Default : Yes
  27. Forced : No

  28. Audio #1
  29. ID : 2
  30. Format : DTS
  31. Format/Info : Digital Theater Systems
  32. Codec ID : A_DTS
  33. Duration : 2 h 6 min
  34. Bit rate mode : Constant
  35. Bit rate : 1 510 kb/s
  36. Channel(s) : 6 channels
  37. Channel layout : C L R Ls Rs LFE
  38. Sampling rate : 48.0 kHz
  39. Frame rate : 93.750 FPS (512 SPF)
  40. Bit depth : 24 bits
  41. Compression mode : Lossy
  42. Stream size : 1.33 GiB (12%)
  43. Language : Japanese
  44. Default : Yes
  45. Forced : No

  46. Audio #2
  47. ID : 3
  48. Format : AC-3
  49. Format/Info : Audio Coding 3
  50. Commercial name : Dolby Digital
  51. Codec ID : A_AC3
  52. Duration : 2 h 6 min
  53. Bit rate mode : Constant
  54. Bit rate : 448 kb/s
  55. Channel(s) : 6 channels
  56. Channel layout : L R C LFE Ls Rs
  57. Sampling rate : 48.0 kHz
  58. Frame rate : 31.250 FPS (1536 SPF)
  59. Bit depth : 16 bits
  60. Compression mode : Lossy
  61. Stream size : 404 MiB (4%)
  62. Language : English
  63. Service kind : Complete Main
  64. Default : No
  65. Forced : No

  66. Text
  67. ID : 4
  68. Format : UTF-8
  69. Codec ID : S_TEXT/UTF8
  70. Codec ID/Info : UTF-8 Plain Text
  71. Duration : 1 h 58 min
  72. Bit rate : 37 b/s
  73. Count of elements : 1207
  74. Stream size : 32.8 KiB (0%)
  75. Language : English
  76. Default : Yes
  77. Forced : Yes
复制代码







游客,如果您要查看本帖隐藏内容请回复

回复

使用道具 举报

人气偶像

高清币
351
金钱
771
鲜花
0
在线时间
113 小时
最后登录
2019-4-20
发表于 5 天前 | 显示全部楼层

这东西我收了!谢谢楼主!中国高清论坛真好!
回复 支持 1 反对 0

使用道具 举报

人气偶像

高清币
25
金钱
1684
鲜花
0
在线时间
324 小时
最后登录
2019-4-20
发表于 5 天前 | 显示全部楼层
感谢楼主分享。。。。。。。。。。。。。
回复 支持 1 反对 0

使用道具 举报

知名艺人

高清币
6
金钱
510
鲜花
0
在线时间
85 小时
最后登录
2019-4-16
发表于 5 天前 | 显示全部楼层
感谢楼主分享高清电影
回复 支持 1 反对 0

使用道具 举报

天王巨星

高清币
29
金钱
1927
鲜花
0
在线时间
345 小时
最后登录
2019-4-17
发表于 5 天前 | 显示全部楼层
每天都来中国高清论坛赚高清币。
回复 支持 1 反对 0

使用道具 举报

金鸡奖主角

高清币
14
金钱
6109
鲜花
0
在线时间
1244 小时
最后登录
2019-4-20
发表于 5 天前 | 显示全部楼层

楼主,大恩不言谢了!中国高清论坛是最棒的!
回复 支持 1 反对 0

使用道具 举报

金鸡奖主角

高清币
14
金钱
6109
鲜花
0
在线时间
1244 小时
最后登录
2019-4-20
发表于 5 天前 | 显示全部楼层

感谢楼主的无私分享!要想中国高清论坛好 就靠你我他
回复 支持 1 反对 0

使用道具 举报

人气偶像

高清币
91
金钱
1652
鲜花
0
在线时间
303 小时
最后登录
2019-4-16
发表于 5 天前 | 显示全部楼层

这东西我收了!谢谢楼主!中国高清论坛真好!
回复 支持 1 反对 0

使用道具 举报

知名艺人

高清币
136
金钱
246
鲜花
0
在线时间
39 小时
最后登录
2019-4-20
发表于 5 天前 | 显示全部楼层

这个帖子不回对不起自己!我想我是一天也不能离开中国高清论坛
回复 支持 1 反对 0

使用道具 举报

人气偶像

高清币
1
金钱
1532
鲜花
0
在线时间
639 小时
最后登录
2019-4-20
发表于 5 天前 手机频道 | 显示全部楼层
好好好好好好
回复 支持 1 反对 0

使用道具 举报

禁止发言

高清币
6
金钱
8
鲜花
0
在线时间
0 小时
最后登录
2019-4-15
发表于 5 天前 | 显示全部楼层
提示: 作者被禁止或删除 内容自动屏蔽
回复 支持 1 反对 0

使用道具 举报

跑龙套

高清币
9
金钱
26
鲜花
0
在线时间
3 小时
最后登录
2019-4-18
发表于 5 天前 | 显示全部楼层
楼主太厉害了!楼主,电影应该很好看我觉得中国高清论坛真是个好地方!
回复 支持 反对

使用道具 举报

知名艺人

高清币
2
金钱
146
鲜花
0
在线时间
16 小时
最后登录
2019-4-18
发表于 5 天前 | 显示全部楼层

楼主太厉害了!楼主,电影应该很好看我觉得中国高清论坛真是个好地方!
回复 支持 反对

使用道具 举报

知名艺人

高清币
52
金钱
310
鲜花
0
在线时间
62 小时
最后登录
2019-4-19
发表于 5 天前 | 显示全部楼层

既然你诚信诚意的推荐了,那我就勉为其难的看看吧!中国高清论坛不走平凡路。
回复 支持 反对

使用道具 举报

金鸡奖主角

高清币
128
金钱
4131
鲜花
0
在线时间
1016 小时
最后登录
2019-4-20
发表于 5 天前 | 显示全部楼层
楼主发贴辛苦了,谢谢楼主分享!我觉得中国高清论坛是注册对了!
回复 支持 反对

使用道具 举报

天王巨星

高清币
207
金钱
2574
鲜花
0
在线时间
204 小时
最后登录
2019-4-20
发表于 5 天前 | 显示全部楼层

既然你诚信诚意的推荐了,那我就勉为其难的看看吧!中国高清论坛不走平凡路。
回复 支持 反对

使用道具 举报

知名艺人

高清币
2
金钱
594
鲜花
0
在线时间
81 小时
最后登录
2019-4-19
发表于 5 天前 | 显示全部楼层
谢谢楼主发布好资源,顶啊
回复 支持 反对

使用道具 举报

超级明星

高清币
3129
金钱
4433
鲜花
0
在线时间
1166 小时
最后登录
2019-4-17
发表于 5 天前 | 显示全部楼层

这个帖子不回对不起自己!我想我是一天也不能离开中国高清论坛
回复 支持 反对

使用道具 举报

人气偶像

高清币
158
金钱
963
鲜花
0
在线时间
391 小时
最后登录
2019-4-19
发表于 5 天前 | 显示全部楼层
谢谢楼主分享!
回复 支持 反对

使用道具 举报

懒得打字嘛,点击右侧快捷回复 【右侧内容,后台自定义】
您需要登录后才可以回帖 登录 | 立即注册

本版积分规则

QQ|手机版|小黑屋|中国高清论坛 ( 黔ICP备16007815号-1 )

GMT+8, 2019-4-20 22:11 , Processed in 0.099880 second(s), 30 queries .

Powered by Discuz! X3.4

© 2001-2017 Comsenz Inc.

快速回复 返回顶部 返回列表