请选择 进入手机版 | 继续访问电脑版

中国高清论坛

 找回密码
 立即注册
搜索
查看: 4716|回复: 763

[动作片] 铁三角.Triangle.2007.BluRay.720p.x264.4Audio-NowYS

  [复制链接]

高清发布组

高清币
25065
金钱
3304
鲜花
0
在线时间
384 小时
最后登录
2019-8-18

双子座巨蟹座狮子座白羊座金牛座

发表于 2019-4-18 20:46:21 | 显示全部楼层 |阅读模式
电影海报
铁三角.jpg
影片信息
◎译  名 Triangle
◎片  名 铁三角
◎年  代 2007
◎国  家 中国大陆/香港
◎类  别 动作
◎语  言 国语普通话/粤语
◎上映日期 2007-10-01(中国大陆)
◎IMDb评分 6.3/10 from 1,471 users
◎IMDb链接 http://www.imdb.com/title/tt0846017/
◎豆瓣评分 6.3/10 from 19,102 users
◎豆瓣链接 https://movie.douban.com/subject/1866131/
◎片  长 101 分钟(戛纳电影节)/93 分钟(香港)
◎导  演 徐克 Hark Tsui / 林岭东 Ringo Lam / 杜琪峰 Johnnie To
◎主  演 古天乐 Louis Koo
      任达华 Simon Yam
      孙红雷 Honglei Sun
      林家栋 Ka Tung Lam
      林熙蕾 Kelly Lin
      刘兆铭 Lau Siu Ming

内容简介
  彭辉(古天乐饰)、山(任达华饰)和莫中原(孙红雷饰)是三个饱受社会、家庭以及经济压力的好友。一天晚上,三人在酒吧聊天,商量改变现状的办法。一位名叫陈福水的神秘老人留下线索,为他们三个带来一次寻奇遇。
  莫中原破解了老人留下的密码,原来藏就藏在立法局的地下。三人准备一番,定铤而走险,寻找藏。然而就在他们发财在望之时,警探正文(林家栋饰)追捕而至,他和彭辉乃至山的妻子(林熙蕾饰)似乎又有不可告人的秘密。
  一连串怪事也接踵而至,先后加入的人物与势力,陷入了你死我活的夺旋涡而?法自拔。

截图预览
1.jpg 2.jpg
3.jpg 4.jpg
参数信息
  1. General
  2. Unique ID                      : 235624156131920926120336125390131914371 (0xB1438FD192149567A95E5A28FC6D6683)
  3. Complete name                  : Triangle.2007.BluRay.720p.x264.4Audio-NowYS.mkv
  4. Format                         : Matroska
  5. Format version                 : Version 4
  6. File size                      : 3.69 GiB
  7. Duration                       : 1 h 32 min
  8. Overall bit rate               : 5 681 kb/s
  9. Movie name                     : 时代影视作品([url]www.sdy4.net[/url])NowYS小组出品
  10. Encoded date                   : UTC 2017-02-03 10:09:55
  11. Writing application            : mkvmerge v7.9.0 ('Birds') 64bit
  12. Writing library                : libebml v1.3.1 + libmatroska v1.4.2

  13. Video
  14. ID                             : 1
  15. Format                         : AVC
  16. Format/Info                    : Advanced Video Codec
  17. Format profile                 : [email]High@L4.1[/email]
  18. Format settings                : CABAC / 2 Ref Frames
  19. Format settings, CABAC         : Yes
  20. Format settings, ReFrames      : 2 frames
  21. Codec ID                       : V_MPEG4/ISO/AVC
  22. Duration                       : 1 h 32 min
  23. Bit rate                       : 4 098 kb/s
  24. Width                          : 1 280 pixels
  25. Height                         : 532 pixels
  26. Display aspect ratio           : 2.40:1
  27. Frame rate mode                : Constant
  28. Frame rate                     : 23.976 (24000/1001) FPS
  29. Color space                    : YUV
  30. Chroma subsampling             : 4:2:0
  31. Bit depth                      : 8 bits
  32. Scan type                      : Progressive
  33. Bits/(Pixel*Frame)             : 0.251
  34. Stream size                    : 2.66 GiB (72%)
  35. Title                          : NowYS小组出品
  36. Writing library                : x264 core 142
  37. Encoding settings              : cabac=1 / ref=1 / deblock=1:-1:-1 / analyse=0x3:0 / me=hex / subme=5 / psy=0 / mixed_ref=0 / me_range=16 / chroma_me=1 / trellis=0 / 8x8dct=1 / cqm=0 / deadzone=21,11 / fast_pskip=1 / chroma_qp_offset=0 / threads=16 / lookahead_threads=4 / sliced_threads=0 / nr=0 / decimate=1 / interlaced=0 / bluray_compat=0 / constrained_intra=0 / bframes=2 / b_pyramid=0 / b_adapt=1 / b_bias=0 / direct=1 / weightb=1 / open_gop=0 / weightp=0 / keyint=24 / keyint_min=13 / scenecut=40 / intra_refresh=0 / rc=2pass / mbtree=0 / bitrate=4098 / ratetol=1.0 / qcomp=0.60 / qpmin=0 / qpmax=69 / qpstep=4 / cplxblur=20.0 / qblur=0.5 / ip_ratio=1.40 / pb_ratio=1.30 / aq=1:1.00
  38. Language                       : Chinese
  39. Default                        : Yes
  40. Forced                         : No
  41. Color range                    : Limited
  42. Color primaries                : BT.709
  43. Transfer characteristics       : BT.709
  44. Matrix coefficients            : BT.709

  45. Audio #1
  46. ID                             : 2
  47. Format                         : AC-3
  48. Format/Info                    : Audio Coding 3
  49. Commercial name                : Dolby Digital
  50. Codec ID                       : A_AC3
  51. Duration                       : 1 h 32 min
  52. Bit rate mode                  : Constant
  53. Bit rate                       : 448 kb/s
  54. Channel(s)                     : 6 channels
  55. Channel layout                 : L R C LFE Ls Rs
  56. Sampling rate                  : 48.0 kHz
  57. Frame rate                     : 31.250 FPS (1536 SPF)
  58. Bit depth                      : 16 bits
  59. Compression mode               : Lossy
  60. Stream size                    : 298 MiB (8%)
  61. Title                          : 国语
  62. Language                       : Chinese
  63. Service kind                   : Complete Main
  64. Default                        : Yes
  65. Forced                         : No

  66. Menu
  67. 00:00:00.000                   : en:(01)00:00:00:000
  68. 00:12:40.384                   : en:(02)00:12:40:384
  69. 00:26:22.872                   : en:(03)00:26:22:872
  70. 00:34:05.710                   : en:(04)00:34:05:710
  71. 00:41:51.467                   : en:(05)00:41:51:467
  72. 00:50:13.135                   : en:(06)00:50:13:135
  73. 01:00:50.063                   : en:(07)01:00:50:063
  74. 01:14:19.663                   : en:(08)01:14:19:663
  75. 01:32:57.572                   : en:(09)01:32:57:572
复制代码
下载地址

游客,如果您要查看本帖隐藏内容请回复,您还可以免扣高清币免回复下载:https://www.85lou.com/plugin.php?id=wyfaka_url:url


回复

使用道具 举报

金鸡奖主角

高清币
114
金钱
3340
鲜花
0
在线时间
400 小时
最后登录
2019-8-18
发表于 2019-4-18 21:12:22 | 显示全部楼层

楼主太厉害了!楼主,电影应该很好看我觉得中国高清论坛真是个好地方!

点评

好片!  发表于 2019-4-23 15:58
回复 支持 1 反对 0

使用道具 举报

金鸡奖主角

高清币
1801
金钱
3998
鲜花
0
在线时间
1010 小时
最后登录
2019-8-19
发表于 2019-4-18 21:13:27 | 显示全部楼层

楼主太厉害了!楼主,电影应该很好看我觉得中国高清论坛真是个好地方!
回复 支持 1 反对 0

使用道具 举报

影坛巨星

高清币
1039
金钱
8469
鲜花
0
在线时间
1003 小时
最后登录
2019-8-19
发表于 2019-4-18 21:13:50 | 显示全部楼层

这东西我收了!谢谢楼主!中国高清论坛真好!
回复 支持 1 反对 0

使用道具 举报

永恒神话

高清币
10664
金钱
16345
鲜花
0
在线时间
1069 小时
最后登录
2019-8-18
发表于 2019-4-18 20:50:25 | 显示全部楼层
楼主发贴辛苦了,谢谢楼主分享!我觉得中国高清论坛是注册对了!
回复 支持 反对

使用道具 举报

知名艺人

高清币
8
金钱
537
鲜花
0
在线时间
138 小时
最后登录
2019-8-11
发表于 2019-4-18 20:52:28 | 显示全部楼层
楼主发贴辛苦了,谢谢楼主分享!
回复 支持 反对

使用道具 举报

影坛巨星

高清币
62
金钱
10452
鲜花
0
在线时间
633 小时
最后登录
2019-8-18
发表于 2019-4-18 20:56:57 | 显示全部楼层

楼主太厉害了!楼主,电影应该很好看我觉得中国高清论坛真是个好地方!
回复 支持 反对

使用道具 举报

好莱坞明星

高清币
1117
金钱
5247
鲜花
0
在线时间
1129 小时
最后登录
2019-8-10
发表于 2019-4-18 20:58:38 | 显示全部楼层
楼主发贴辛苦了,谢谢楼主分享!我觉得中国高清论坛是注册对了!
回复 支持 反对

使用道具 举报

超级明星

高清币
1486
金钱
6130
鲜花
0
在线时间
2033 小时
最后登录
2019-8-19
发表于 2019-4-18 20:59:50 | 显示全部楼层

这个帖子不回对不起自己!我想我是一天也不能离开中国高清论坛
回复 支持 反对

使用道具 举报

金鸡奖主角

高清币
206
金钱
4528
鲜花
0
在线时间
564 小时
最后登录
2019-8-18
发表于 2019-4-18 21:05:14 | 显示全部楼层

楼主太厉害了!楼主,电影应该很好看我觉得中国高清论坛真是个好地方!
回复 支持 反对

使用道具 举报

人气偶像

高清币
2
金钱
1655
鲜花
0
在线时间
299 小时
最后登录
2019-8-16
发表于 2019-4-18 21:08:39 | 显示全部楼层
我觉得中国高清论坛真是个好地方!
回复 支持 反对

使用道具 举报

superstar

高清币
3165
金钱
12596
鲜花
0
在线时间
444 小时
最后登录
2019-8-19
发表于 2019-4-18 21:09:54 | 显示全部楼层
楼主发贴辛苦了,谢谢楼主分享!我觉得中国高清论坛是注册对了!
回复 支持 反对

使用道具 举报

人气偶像

高清币
2
金钱
1655
鲜花
0
在线时间
299 小时
最后登录
2019-8-16
发表于 2019-4-18 21:09:58 | 显示全部楼层
我觉得中国高清论坛真是个好地方!我觉得中国高清论坛真是个好地方!
回复 支持 反对

使用道具 举报

懒得打字嘛,点击右侧快捷回复 【右侧内容,后台自定义】
您需要登录后才可以回帖 登录 | 立即注册

本版积分规则

QQ|手机版|小黑屋|中国高清论坛 ( 黔ICP备16007815号-1 )

GMT+8, 2019-8-19 10:31 , Processed in 0.100921 second(s), 30 queries .

Powered by Discuz! X3.4

© 2001-2017 Comsenz Inc.

快速回复 返回顶部 返回列表