请选择 进入手机版 | 继续访问电脑版

中国高清论坛

 找回密码
 立即注册
搜索
查看: 3945|回复: 506

[动作片] 逃出水泥地 Dragged.Across.Concrete.2018.720p.BluRay.x264.DTS-MT 4.79 GB

  [复制链接]

超级版主

高清币
16731
金钱
38852
鲜花
0
在线时间
11956 小时
最后登录
2019-8-19
发表于 2019-4-28 11:24:52 | 显示全部楼层 |阅读模式


◎译  名 逃出水泥地/黑吃黑
◎片  名 Dragged Across Concrete
◎年  代 2019
◎产  地 加拿大
◎类  别 动作/犯罪/剧情
◎语  言 英语
◎IMDb评分 8.2/10 from 802 users
◎IMDB链接 https://www.imdb.com/title/tt6491178/
◎片  长 2 h 38 min
◎导  演 S·克雷格·扎勒 S. Craig Zahler
◎主  演 梅尔·吉布森 Mel Gibson
       詹妮弗·卡朋特 Jennifer Carpenter
       文斯·沃恩 Vince Vaughn
       劳瑞·侯登 Laurie Holden
     


◎简  介


  梅尔·吉布森和文斯·沃恩饰演的两位警探发现自己被停职,原因是一则录像被媒体曝光,展现了他们在执法上的“强硬手段”。两人在缺少资金跟外界帮助的情况下决定深入地下犯罪集团,却发现有更多意想不到的事情笼罩在阴影之下。

  1. Video
  2. ID : 1
  3. Format : AVC
  4. Format/Info : Advanced Video Codec
  5. Format profile : High@L4.1
  6. Format settings : CABAC / 12 Ref Frames
  7. Format settings, CABAC : Yes
  8. Format settings, ReFrames : 12 frames
  9. Codec ID : V_MPEG4/ISO/AVC
  10. Duration : 2 h 38 min
  11. Bit rate : 2 819 kb/s
  12. Width : 1 280 pixels
  13. Height : 534 pixels
  14. Display aspect ratio : 2.40:1
  15. Frame rate mode : Constant
  16. Frame rate : 23.976 (24000/1001) FPS
  17. Color space : YUV
  18. Chroma subsampling : 4:2:0
  19. Bit depth : 8 bits
  20. Scan type : Progressive
  21. Bits/(Pixel*Frame) : 0.172
  22. Stream size : 3.12 GiB (65%)
  23. Writing library : x264 core 157 r2938 2b00a84 TnP@MTeam Mod
  24. Encoding settings : cabac=1 / ref=12 / deblock=1:-3:-3 / analyse=0x3:0x133 / me=umh / subme=10 / psy=1 / psy_rd=1.05:0.00 / mixed_ref=1 / me_range=32 / chroma_me=1 / trellis=2 / 8x8dct=1 / cqm=0 / deadzone=21,11 / fast_pskip=0 / chroma_qp_offset=-2 / threads=12 / lookahead_threads=2 / sliced_threads=0 / nr=0 / decimate=0 / interlaced=0 / bluray_compat=0 / constrained_intra=0 / bframes=8 / b_pyramid=2 / b_adapt=2 / b_bias=0 / direct=3 / weightb=1 / open_gop=0 / weightp=2 / keyint=250 / keyint_min=24 / scenecut=40 / intra_refresh=0 / rc_lookahead=250 / rc=crf / mbtree=0 / crf=16.5 / qcomp=0.60 / qpmin=0 / qpmax=69 / qpstep=4 / vbv_maxrate=62500 / vbv_bufsize=78125 / crf_max=0.0 / nal_hrd=none / filler=0 / ip_ratio=1.30 / pb_ratio=1.20 / aq=3:0.80
  25. Language : English
  26. Default : Yes
  27. Forced : No
  28. Color range : Limited
  29. Color primaries : BT.709
  30. Matrix coefficients : BT.709

  31. Audio
  32. ID : 2
  33. Format : DTS
  34. Format/Info : Digital Theater Systems
  35. Codec ID : A_DTS
  36. Duration : 2 h 38 min
  37. Bit rate mode : Constant
  38. Bit rate : 1 509 kb/s
  39. Channel(s) : 6 channels
  40. Channel layout : C L R Ls Rs LFE
  41. Sampling rate : 48.0 kHz
  42. Frame rate : 93.750 FPS (512 SPF)
  43. Bit depth : 24 bits
  44. Compression mode : Lossy
  45. Stream size : 1.67 GiB (35%)
  46. Language : English
  47. Default : Yes
  48. Forced : No

  49. Text #1
  50. ID : 3
  51. Format : UTF-8
  52. Codec ID : S_TEXT/UTF8
  53. Codec ID/Info : UTF-8 Plain Text
  54. Duration : 2 h 28 min
  55. Bit rate : 45 b/s
  56. Count of elements : 1548
  57. Stream size : 49.3 KiB (0%)
  58. Language : English
  59. Default : Yes
  60. Forced : No

  61. Text #2
  62. ID : 4
  63. Format : UTF-8
  64. Codec ID : S_TEXT/UTF8
  65. Codec ID/Info : UTF-8 Plain Text
  66. Duration : 2 h 28 min
  67. Bit rate : 47 b/s
  68. Count of elements : 1655
  69. Stream size : 51.7 KiB (0%)
  70. Title : SDH
  71. Language : English
  72. Default : No
  73. Forced : No

  74. Menu
  75. 00:00:00.000 : en:Chapter 01
  76. 00:09:32.113 : en:Chapter 02
  77. 00:19:30.920 : en:Chapter 03
  78. 00:27:22.558 : en:Chapter 04
  79. 00:35:24.622 : en:Chapter 05
  80. 00:43:50.503 : en:Chapter 06
  81. 00:55:01.381 : en:Chapter 07
  82. 01:04:38.291 : en:Chapter 08
  83. 01:15:11.298 : en:Chapter 09
  84. 01:24:12.005 : en:Chapter 10
  85. 01:30:18.079 : en:Chapter 11
  86. 01:37:44.650 : en:Chapter 12
  87. 01:45:51.804 : en:Chapter 13
  88. 02:02:37.433 : en:Chapter 14
  89. 02:14:07.081 : en:Chapter 15
  90. 02:25:37.729 : en:Chapter 16
复制代码






游客,如果您要查看本帖隐藏内容请回复,您还可以免扣高清币免回复下载:https://www.85lou.com/plugin.php?id=wyfaka_url:url
回复

使用道具 举报

人气偶像

高清币
0
金钱
1503
鲜花
0
在线时间
167 小时
最后登录
2019-8-17
发表于 2019-4-28 15:27:04 | 显示全部楼层
楼主太厉害了!楼主,电影应该很好看我觉得中国高清论坛真是个好地方!
回复 支持 1 反对 0

使用道具 举报

金鸡奖主角

高清币
1280
金钱
2866
鲜花
0
在线时间
227 小时
最后登录
2019-8-12
发表于 2019-4-28 15:53:54 | 显示全部楼层

感谢楼主的无私分享!要想中国高清论坛好 就靠你我他
回复 支持 1 反对 0

使用道具 举报

影坛巨星

高清币
1689
金钱
8298
鲜花
0
在线时间
1065 小时
最后登录
2019-8-18
发表于 2019-4-28 16:02:29 | 显示全部楼层

楼主太厉害了!楼主,电影应该很好看我觉得中国高清论坛真是个好地方!
回复 支持 1 反对 0

使用道具 举报

影坛巨星

高清币
3268
金钱
6163
鲜花
0
在线时间
1629 小时
最后登录
2019-7-29
发表于 2019-4-28 11:27:01 | 显示全部楼层
楼主发贴辛苦了,谢谢楼主分享!我觉得中国高清论坛是注册对了!
回复 支持 反对

使用道具 举报

永恒神话

高清币
11931
金钱
36046
鲜花
10
在线时间
2405 小时
最后登录
2019-8-19
发表于 2019-4-28 11:33:04 | 显示全部楼层

楼主,我太崇拜你了!我想我是一天也不能离开中国高清论坛
回复 支持 反对

使用道具 举报

超级明星

高清币
293
金钱
9014
鲜花
0
在线时间
2603 小时
最后登录
2019-8-18
发表于 2019-4-28 11:45:51 | 显示全部楼层
楼主发贴辛苦了,谢谢楼主分享!我觉得中国高清论坛是注册对了!
回复 支持 反对

使用道具 举报

永恒神话

高清币
27651
金钱
38367
鲜花
0
在线时间
932 小时
最后登录
2019-8-19
发表于 2019-4-28 11:46:18 | 显示全部楼层
楼主发贴辛苦了,谢谢楼主分享!我觉得中国高清论坛是注册对了!
回复 支持 反对

使用道具 举报

superstar

高清币
2425
金钱
12167
鲜花
0
在线时间
1573 小时
最后登录
2019-8-15
发表于 2019-4-28 11:47:31 | 显示全部楼层
楼主发贴辛苦了,谢谢楼主分享!我觉得中国高清论坛是注册对了!
回复 支持 反对

使用道具 举报

金鸡奖主角

高清币
614
金钱
3570
鲜花
0
在线时间
584 小时
最后登录
2019-8-19
发表于 2019-4-28 11:48:05 | 显示全部楼层
楼主发贴辛苦了,谢谢楼主分享!我觉得中国高清论坛是注册对了!
回复 支持 反对

使用道具 举报

永恒神话

高清币
4864
金钱
13073
鲜花
0
在线时间
1746 小时
最后登录
2019-8-18
发表于 2019-4-28 11:51:27 | 显示全部楼层

楼主太厉害了!楼主,电影应该很好看我觉得中国高清论坛真是个好地方!
回复 支持 反对

使用道具 举报

永恒神话

高清币
6758
金钱
10731
鲜花
0
在线时间
763 小时
最后登录
2019-8-18
发表于 2019-4-28 11:54:16 | 显示全部楼层

楼主太厉害了!楼主,电影应该很好看我觉得中国高清论坛真是个好地方!
回复 支持 反对

使用道具 举报

永恒神话

高清币
7369
金钱
16959
鲜花
0
在线时间
469 小时
最后登录
2019-8-16
发表于 2019-4-28 11:55:23 | 显示全部楼层
楼主发贴辛苦了,谢谢楼主分享!我觉得中国高清论坛是注册对了!
回复 支持 反对

使用道具 举报

懒得打字嘛,点击右侧快捷回复 【右侧内容,后台自定义】
您需要登录后才可以回帖 登录 | 立即注册

本版积分规则

QQ|手机版|小黑屋|中国高清论坛 ( 黔ICP备16007815号-1 )

GMT+8, 2019-8-19 09:13 , Processed in 0.076873 second(s), 26 queries .

Powered by Discuz! X3.4

© 2001-2017 Comsenz Inc.

快速回复 返回顶部 返回列表