请选择 进入手机版 | 继续访问电脑版

中国高清论坛

 找回密码
 立即注册
搜索
查看: 4734|回复: 734

[动作片] 恶霸警察 [繁简中文字幕] J.P-h.T.D.R.2019.KOREAN.1080p.NF.WEBRip.DDP5.1.x264-NTG

  [复制链接]

超级版主

高清币
16824
金钱
39052
鲜花
0
在线时间
12004 小时
最后登录
2019-8-25
发表于 2019-5-10 19:23:30 | 显示全部楼层 |阅读模式


◎译  名 坏警察/恶霸警察
◎片  名 Jo Pil-ho: The Dawning Rage
◎年  代 2019
◎国  家 韩国
◎类  别 动作
◎语  言 韩语
◎IMDb评分 6.2/10 from 162 users
◎IMDb链接 https://www.imdb.com/title/tt7738048/
◎片  长 2 h 7 min
◎导  演 李桢凡 Jeong-beom Lee
◎主  演 李善均 Seon-gyun Lee
       全素妮 Jeon So-nee
       朴海俊 Hea-jun Park
       宋永彰 Young-chang Song



◎简  介

  影片讲述了坏警察与邪恶黑暗的社会对抗的故事。


  1. Video
  2. ID : 1
  3. Format : AVC
  4. Format/Info : Advanced Video Codec
  5. Format profile : High@L4
  6. Format settings : CABAC / 4 Ref Frames
  7. Format settings, CABAC : Yes
  8. Format settings, ReFrames : 4 frames
  9. Codec ID : V_MPEG4/ISO/AVC
  10. Duration : 2 h 7 min
  11. Bit rate mode : Variable
  12. Bit rate : 4 355 kb/s
  13. Maximum bit rate : 20.0 Mb/s
  14. Width : 1 920 pixels
  15. Height : 1 080 pixels
  16. Display aspect ratio : 16:9
  17. Frame rate mode : Constant
  18. Frame rate : 23.976 (24000/1001) FPS
  19. Color space : YUV
  20. Chroma subsampling : 4:2:0
  21. Bit depth : 8 bits
  22. Scan type : Progressive
  23. Bits/(Pixel*Frame) : 0.088
  24. Stream size : 3.89 GiB (87%)
  25. Writing library : x264 core 148 r2715 7e75228
  26. Encoding settings : cabac=1 / ref=4 / deblock=1:0:0 / analyse=0x3:0x111 / me=umh / subme=10 / psy=1 / psy_rd=1.00:0.00 / mixed_ref=1 / me_range=120 / chroma_me=1 / trellis=2 / 8x8dct=1 / cqm=0 / deadzone=21,11 / fast_pskip=1 / chroma_qp_offset=-2 / threads=8 / lookahead_threads=2 / sliced_threads=0 / nr=0 / decimate=1 / interlaced=0 / bluray_compat=0 / stitchable=1 / constrained_intra=0 / bframes=16 / b_pyramid=2 / b_adapt=2 / b_bias=0 / direct=3 / weightb=1 / open_gop=0 / weightp=2 / keyint=240 / keyint_min=121 / scenecut=0 / intra_refresh=0 / rc_lookahead=240 / rc=crf / mbtree=1 / crf=16.0 / qcomp=0.50 / qpmin=6 / qpmax=51 / qpstep=4 / vbv_maxrate=20000 / vbv_bufsize=25000 / crf_max=0.0 / nal_hrd=vbr / filler=0 / ip_ratio=1.40 / aq=1:0.80
  27. Default : Yes
  28. Forced : No

  29. Audio
  30. ID : 2
  31. Format : E-AC-3
  32. Format/Info : Enhanced AC-3
  33. Commercial name : Dolby Digital Plus
  34. Codec ID : A_EAC3
  35. Duration : 2 h 7 min
  36. Bit rate mode : Constant
  37. Bit rate : 640 kb/s
  38. Channel(s) : 6 channels
  39. Channel layout : L R C LFE Ls Rs
  40. Sampling rate : 48.0 kHz
  41. Frame rate : 31.250 FPS (1536 SPF)
  42. Compression mode : Lossy
  43. Stream size : 585 MiB (13%)
  44. Title : Korean
  45. Language : Korean
  46. Service kind : Complete Main
  47. Default : Yes
  48. Forced : No

  49. Text #1
  50. ID : 3
  51. Format : UTF-8
  52. Codec ID : S_TEXT/UTF8
  53. Codec ID/Info : UTF-8 Plain Text
  54. Duration : 2 h 1 min
  55. Bit rate : 41 b/s
  56. Count of elements : 1285
  57. Stream size : 37.0 KiB (0%)
  58. Language : English
  59. Default : No
  60. Forced : No

  61. Text #2
  62. ID : 4
  63. Format : UTF-8
  64. Codec ID : S_TEXT/UTF8
  65. Codec ID/Info : UTF-8 Plain Text
  66. Duration : 2 h 1 min
  67. Bit rate : 67 b/s
  68. Count of elements : 1294
  69. Stream size : 59.8 KiB (0%)
  70. Language : Arabic
  71. Default : No
  72. Forced : No

  73. Text #3
  74. ID : 5
  75. Format : UTF-8
  76. Codec ID : S_TEXT/UTF8
  77. Codec ID/Info : UTF-8 Plain Text
  78. Duration : 2 h 1 min
  79. Bit rate : 50 b/s
  80. Count of elements : 1723
  81. Stream size : 44.9 KiB (0%)
  82. Language : Czech
  83. Default : No
  84. Forced : No

  85. Text #4
  86. ID : 6
  87. Format : UTF-8
  88. Codec ID : S_TEXT/UTF8
  89. Codec ID/Info : UTF-8 Plain Text
  90. Duration : 2 h 1 min
  91. Bit rate : 38 b/s
  92. Count of elements : 1286
  93. Stream size : 34.4 KiB (0%)
  94. Language : Danish
  95. Default : No
  96. Forced : No

  97. Text #5
  98. ID : 7
  99. Format : UTF-8
  100. Codec ID : S_TEXT/UTF8
  101. Codec ID/Info : UTF-8 Plain Text
  102. Duration : 2 h 1 min
  103. Bit rate : 45 b/s
  104. Count of elements : 1293
  105. Stream size : 40.7 KiB (0%)
  106. Language : German
  107. Default : No
  108. Forced : No

  109. Text #6
  110. ID : 8
  111. Format : UTF-8
  112. Codec ID : S_TEXT/UTF8
  113. Codec ID/Info : UTF-8 Plain Text
  114. Duration : 2 h 1 min
  115. Bit rate : 69 b/s
  116. Count of elements : 1290
  117. Stream size : 62.1 KiB (0%)
  118. Language : Greek
  119. Default : No
  120. Forced : No

  121. Text #7
  122. ID : 9
  123. Format : UTF-8
  124. Codec ID : S_TEXT/UTF8
  125. Codec ID/Info : UTF-8 Plain Text
  126. Duration : 2 h 1 min
  127. Bit rate : 43 b/s
  128. Count of elements : 1290
  129. Stream size : 38.6 KiB (0%)
  130. Language : Spanish
  131. Default : No
  132. Forced : No

  133. Text #8
  134. ID : 10
  135. Format : UTF-8
  136. Codec ID : S_TEXT/UTF8
  137. Codec ID/Info : UTF-8 Plain Text
  138. Duration : 2 h 1 min
  139. Bit rate : 42 b/s
  140. Count of elements : 1290
  141. Stream size : 38.1 KiB (0%)
  142. Title : European
  143. Language : Spanish
  144. Default : No
  145. Forced : No

  146. Text #9
  147. ID : 11
  148. Format : UTF-8
  149. Codec ID : S_TEXT/UTF8
  150. Codec ID/Info : UTF-8 Plain Text
  151. Duration : 2 h 1 min
  152. Bit rate : 40 b/s
  153. Count of elements : 1290
  154. Stream size : 35.8 KiB (0%)
  155. Language : Finnish
  156. Default : No
  157. Forced : No

  158. Text #10
  159. ID : 12
  160. Format : UTF-8
  161. Codec ID : S_TEXT/UTF8
  162. Codec ID/Info : UTF-8 Plain Text
  163. Duration : 2 h 1 min
  164. Bit rate : 44 b/s
  165. Count of elements : 1292
  166. Stream size : 39.7 KiB (0%)
  167. Language : French
  168. Default : No
  169. Forced : No

  170. Text #11
  171. ID : 13
  172. Format : UTF-8
  173. Codec ID : S_TEXT/UTF8
  174. Codec ID/Info : UTF-8 Plain Text
  175. Duration : 2 h 1 min
  176. Bit rate : 60 b/s
  177. Count of elements : 1294
  178. Stream size : 53.6 KiB (0%)
  179. Language : Hebrew
  180. Default : No
  181. Forced : No

  182. Text #12
  183. ID : 14
  184. Format : UTF-8
  185. Codec ID : S_TEXT/UTF8
  186. Codec ID/Info : UTF-8 Plain Text
  187. Duration : 2 h 1 min
  188. Bit rate : 49 b/s
  189. Count of elements : 1723
  190. Stream size : 43.8 KiB (0%)
  191. Language : Hungarian
  192. Default : No
  193. Forced : No

  194. Text #13
  195. ID : 15
  196. Format : UTF-8
  197. Codec ID : S_TEXT/UTF8
  198. Codec ID/Info : UTF-8 Plain Text
  199. Duration : 2 h 1 min
  200. Bit rate : 49 b/s
  201. Count of elements : 1723
  202. Stream size : 44.4 KiB (0%)
  203. Language : Indonesian
  204. Default : No
  205. Forced : No

  206. Text #14
  207. ID : 16
  208. Format : UTF-8
  209. Codec ID : S_TEXT/UTF8
  210. Codec ID/Info : UTF-8 Plain Text
  211. Duration : 2 h 1 min
  212. Bit rate : 40 b/s
  213. Count of elements : 1294
  214. Stream size : 36.3 KiB (0%)
  215. Language : Italian
  216. Default : No
  217. Forced : No

  218. Text #15
  219. ID : 17
  220. Format : UTF-8
  221. Codec ID : S_TEXT/UTF8
  222. Codec ID/Info : UTF-8 Plain Text
  223. Duration : 2 h 1 min
  224. Bit rate : 43 b/s
  225. Count of elements : 1430
  226. Stream size : 38.5 KiB (0%)
  227. Language : Japanese
  228. Default : No
  229. Forced : No

  230. Text #16
  231. ID : 18
  232. Format : UTF-8
  233. Codec ID : S_TEXT/UTF8
  234. Codec ID/Info : UTF-8 Plain Text
  235. Duration : 2 h 0 min
  236. Bit rate : 64 b/s
  237. Count of elements : 1278
  238. Stream size : 56.8 KiB (0%)
  239. Language : Korean
  240. Default : No
  241. Forced : No

  242. Text #17
  243. ID : 19
  244. Format : UTF-8
  245. Codec ID : S_TEXT/UTF8
  246. Codec ID/Info : UTF-8 Plain Text
  247. Duration : 2 h 2 min
  248. Bit rate : 68 b/s
  249. Count of elements : 1449
  250. Stream size : 61.7 KiB (0%)
  251. Title : SDH
  252. Language : Korean
  253. Default : No
  254. Forced : No

  255. Text #18
  256. ID : 20
  257. Format : UTF-8
  258. Codec ID : S_TEXT/UTF8
  259. Codec ID/Info : UTF-8 Plain Text
  260. Duration : 2 h 1 min
  261. Bit rate : 40 b/s
  262. Count of elements : 1291
  263. Stream size : 35.9 KiB (0%)
  264. Language : Norwegian Bokmal
  265. Default : No
  266. Forced : No

  267. Text #19
  268. ID : 21
  269. Format : UTF-8
  270. Codec ID : S_TEXT/UTF8
  271. Codec ID/Info : UTF-8 Plain Text
  272. Duration : 2 h 1 min
  273. Bit rate : 40 b/s
  274. Count of elements : 1275
  275. Stream size : 35.6 KiB (0%)
  276. Language : Dutch
  277. Default : No
  278. Forced : No

  279. Text #20
  280. ID : 22
  281. Format : UTF-8
  282. Codec ID : S_TEXT/UTF8
  283. Codec ID/Info : UTF-8 Plain Text
  284. Duration : 2 h 1 min
  285. Bit rate : 38 b/s
  286. Count of elements : 1279
  287. Stream size : 34.4 KiB (0%)
  288. Language : Polish
  289. Default : No
  290. Forced : No

  291. Text #21
  292. ID : 23
  293. Format : UTF-8
  294. Codec ID : S_TEXT/UTF8
  295. Codec ID/Info : UTF-8 Plain Text
  296. Duration : 2 h 1 min
  297. Bit rate : 43 b/s
  298. Count of elements : 1290
  299. Stream size : 38.7 KiB (0%)
  300. Language : Portuguese
  301. Default : No
  302. Forced : No

  303. Text #22
  304. ID : 24
  305. Format : UTF-8
  306. Codec ID : S_TEXT/UTF8
  307. Codec ID/Info : UTF-8 Plain Text
  308. Duration : 2 h 1 min
  309. Bit rate : 41 b/s
  310. Count of elements : 1292
  311. Stream size : 36.8 KiB (0%)
  312. Title : Brazilian
  313. Language : Portuguese
  314. Default : No
  315. Forced : No

  316. Text #23
  317. ID : 25
  318. Format : UTF-8
  319. Codec ID : S_TEXT/UTF8
  320. Codec ID/Info : UTF-8 Plain Text
  321. Duration : 2 h 1 min
  322. Bit rate : 46 b/s
  323. Count of elements : 1291
  324. Stream size : 41.6 KiB (0%)
  325. Language : Romanian
  326. Default : No
  327. Forced : No

  328. Text #24
  329. ID : 26
  330. Format : UTF-8
  331. Codec ID : S_TEXT/UTF8
  332. Codec ID/Info : UTF-8 Plain Text
  333. Duration : 2 h 1 min
  334. Bit rate : 64 b/s
  335. Count of elements : 1291
  336. Stream size : 57.5 KiB (0%)
  337. Language : Russian
  338. Default : No
  339. Forced : No

  340. Text #25
  341. ID : 27
  342. Format : UTF-8
  343. Codec ID : S_TEXT/UTF8
  344. Codec ID/Info : UTF-8 Plain Text
  345. Duration : 2 h 1 min
  346. Bit rate : 41 b/s
  347. Count of elements : 1293
  348. Stream size : 36.9 KiB (0%)
  349. Language : Swedish
  350. Default : No
  351. Forced : No

  352. Text #26
  353. ID : 28
  354. Format : UTF-8
  355. Codec ID : S_TEXT/UTF8
  356. Codec ID/Info : UTF-8 Plain Text
  357. Duration : 2 h 1 min
  358. Bit rate : 105 b/s
  359. Count of elements : 1294
  360. Stream size : 93.4 KiB (0%)
  361. Language : Thai
  362. Default : No
  363. Forced : No

  364. Text #27
  365. ID : 29
  366. Format : UTF-8
  367. Codec ID : S_TEXT/UTF8
  368. Codec ID/Info : UTF-8 Plain Text
  369. Duration : 2 h 1 min
  370. Bit rate : 43 b/s
  371. Count of elements : 1291
  372. Stream size : 39.0 KiB (0%)
  373. Language : Turkish
  374. Default : No
  375. Forced : No

  376. Text #28
  377. ID : 30
  378. Format : UTF-8
  379. Codec ID : S_TEXT/UTF8
  380. Codec ID/Info : UTF-8 Plain Text
  381. Duration : 2 h 1 min
  382. Bit rate : 60 b/s
  383. Count of elements : 1291
  384. Stream size : 54.1 KiB (0%)
  385. Language : Vietnamese
  386. Default : No
  387. Forced : No

  388. Text #29
  389. ID : 31
  390. Format : UTF-8
  391. Codec ID : S_TEXT/UTF8
  392. Codec ID/Info : UTF-8 Plain Text
  393. Duration : 2 h 1 min
  394. Bit rate : 44 b/s
  395. Count of elements : 1294
  396. Stream size : 39.2 KiB (0%)
  397. Title : Simplified
  398. Language : Chinese
  399. Default : No
  400. Forced : No

  401. Text #30
  402. ID : 32
  403. Format : UTF-8
  404. Codec ID : S_TEXT/UTF8
  405. Codec ID/Info : UTF-8 Plain Text
  406. Duration : 2 h 1 min
  407. Bit rate : 41 b/s
  408. Count of elements : 1289
  409. Stream size : 36.8 KiB (0%)
  410. Title : Traditional
  411. Language : Chinese
  412. Default : No
  413. Forced : No
复制代码







游客,如果您要查看本帖隐藏内容请回复,您还可以免扣高清币免回复下载:https://www.85lou.com/plugin.php?id=wyfaka_url:url
回复

使用道具 举报

永恒神话

高清币
39362
金钱
78200
鲜花
0
在线时间
6708 小时
最后登录
2019-8-25
发表于 2019-5-10 19:43:20 | 显示全部楼层

楼主太厉害了!楼主,电影应该很好看我觉得中国高清论坛真是个好地方!
回复 支持 1 反对 0

使用道具 举报

金鸡奖主角

高清币
99
金钱
5470
鲜花
0
在线时间
1422 小时
最后登录
2019-8-25
发表于 2019-5-10 19:40:02 | 显示全部楼层

我看不错噢 谢谢楼主!中国高清论坛越来越好!
回复 支持 1 反对 0

使用道具 举报

永恒神话

高清币
6544
金钱
11435
鲜花
0
在线时间
1449 小时
最后登录
2019-8-25
发表于 2019-5-10 19:26:57 | 显示全部楼层

这东西我收了!谢谢楼主!中国高清论坛真好!
回复 支持 反对

使用道具 举报

知名艺人

高清币
58
金钱
515
鲜花
0
在线时间
97 小时
最后登录
2019-8-25
发表于 2019-5-10 19:29:17 | 显示全部楼层
感谢楼主的无私分享!要想中国高清论坛好 就靠你我他
回复 支持 反对

使用道具 举报

金鸡奖主角

高清币
95
金钱
3451
鲜花
0
在线时间
230 小时
最后登录
2019-8-25
发表于 2019-5-10 19:29:37 | 显示全部楼层
感谢楼主分享!
回复 支持 反对

使用道具 举报

金鸡奖主角

高清币
294
金钱
5689
鲜花
0
在线时间
1259 小时
最后登录
2019-8-25
发表于 2019-5-10 19:29:38 | 显示全部楼层

这个帖子不回对不起自己!我想我是一天也不能离开中国高清论坛
回复 支持 反对

使用道具 举报

天王巨星

高清币
124
金钱
2002
鲜花
0
在线时间
408 小时
最后登录
2019-8-25
发表于 2019-5-10 19:30:54 | 显示全部楼层
好电影,收了!!!!!!!!
回复 支持 反对

使用道具 举报

超级明星

高清币
2203
金钱
6339
鲜花
0
在线时间
1628 小时
最后登录
2019-8-25
发表于 2019-5-10 19:31:10 | 显示全部楼层

这东西我收了!谢谢楼主!中国高清论坛真好!
回复 支持 反对

使用道具 举报

金鸡奖主角

高清币
1238
金钱
4341
鲜花
0
在线时间
433 小时
最后登录
2019-8-25
发表于 2019-5-10 19:31:50 | 显示全部楼层

楼主,我太崇拜你了!我想我是一天也不能离开中国高清论坛
回复 支持 反对

使用道具 举报

好莱坞明星

高清币
653
金钱
6488
鲜花
0
在线时间
1772 小时
最后登录
2019-8-25
发表于 2019-5-10 19:32:24 | 显示全部楼层
谢谢楼主分享!
回复 支持 反对

使用道具 举报

人气偶像

高清币
1
金钱
1573
鲜花
0
在线时间
606 小时
最后登录
2019-8-25
发表于 2019-5-10 19:33:42 | 显示全部楼层
6666666666666666666666666666666666
回复 支持 反对

使用道具 举报

懒得打字嘛,点击右侧快捷回复 【右侧内容,后台自定义】
您需要登录后才可以回帖 登录 | 立即注册

本版积分规则

QQ|手机版|小黑屋|中国高清论坛 ( 黔ICP备16007815号-1 )

GMT+8, 2019-8-25 21:10 , Processed in 0.071233 second(s), 26 queries .

Powered by Discuz! X3.4

© 2001-2017 Comsenz Inc.

快速回复 返回顶部 返回列表