请选择 进入手机版 | 继续访问电脑版

中国高清论坛

 找回密码
 立即注册
搜索
查看: 4541|回复: 914

[动作片] 雷霆沙赞!/沙赞!(台) Shazam.2019.1080p.KORSUB.HDRip.x264.AAC2.0-STUTTERSHIT

  [复制链接]

超级版主

高清币
15802
金钱
36829
鲜花
-88
在线时间
11545 小时
最后登录
2019-5-24
发表于 2019-5-11 09:40:30 | 显示全部楼层 |阅读模式


◎译  名 雷霆沙赞!/雷霆沙赞/沙赞/神奇上尉/奇迹队长/沙赞!神力集结(港)/沙赞!(台)
◎片  名 Shazam!/Billy Batson and the Legend of Shazam!/Franklin
◎年  代 2019
◎国  家 美国
◎类  别 动作/冒险/奇幻
◎语  言 英语
◎IMDb评分 7.5/10 from 90857 users
◎IMDb链接 https://www.imdb.com/title/tt0448115/
◎片  长 2 h 10 min
◎导  演 大卫·F·桑德伯格 David F. Sandberg
◎主  演 扎克瑞·莱维 Zachary Levi
       马克·斯特朗 Mark Strong
       亚瑟·安其 Asher Angel




◎简  介

  每个人身体里都潜藏着一位超级英雄,只需要一点魔力便能将其释放。14岁的街头小混混比利·巴特森(亚瑟·安其饰)通过大喊“沙赞”这个词,就可以变身为成年超级英雄沙赞(扎克瑞·莱维饰),这是一种来自于古老巫师的恩惠。如神一般的肌肉身体里,仍存有一颗孩子心,他开心地与超能力为伴。他能飞吗?他能X光透视吗?他能从手中射出闪电吗?他能不用再考试了吗?沙赞以孩子般轻率又鲁莽的方式,开始测试他的能力极限。但他需要尽快掌握这些力量,以对抗塞迪斯·希瓦纳博士控制的邪恶势力。
  1. Video
  2. ID : 1
  3. Format : AVC
  4. Format/Info : Advanced Video Codec
  5. Format profile : High@L4.1
  6. Format settings : CABAC / 4 Ref Frames
  7. Format settings, CABAC : Yes
  8. Format settings, ReFrames : 4 frames
  9. Codec ID : V_MPEG4/ISO/AVC
  10. Duration : 2 h 10 min
  11. Bit rate : 3 990 kb/s
  12. Width : 1 920 pixels
  13. Height : 800 pixels
  14. Display aspect ratio : 2.40:1
  15. Frame rate mode : Constant
  16. Frame rate : 30.000 FPS
  17. Color space : YUV
  18. Chroma subsampling : 4:2:0
  19. Bit depth : 8 bits
  20. Scan type : Progressive
  21. Bits/(Pixel*Frame) : 0.087
  22. Stream size : 3.61 GiB (94%)
  23. Title : Shazam.2019.1080p.KORSUB.HDRip.x264.AAC2.0-STUTTERSHIT
  24. Writing library : x264 core 142 r2479 dd79a61
  25. Encoding settings : cabac=1 / ref=1 / deblock=1:0:0 / analyse=0x3:0x3 / me=dia / subme=1 / psy=1 / psy_rd=1.00:0.00 / mixed_ref=0 / me_range=16 / chroma_me=1 / trellis=0 / 8x8dct=1 / cqm=0 / deadzone=21,11 / fast_pskip=1 / chroma_qp_offset=0 / threads=24 / lookahead_threads=4 / sliced_threads=0 / nr=0 / decimate=1 / interlaced=0 / bluray_compat=0 / constrained_intra=0 / bframes=3 / b_pyramid=2 / b_adapt=1 / b_bias=0 / direct=1 / weightb=1 / open_gop=0 / weightp=1 / keyint=300 / keyint_min=30 / scenecut=40 / intra_refresh=0 / rc_lookahead=0 / rc=abr / mbtree=0 / bitrate=3990 / ratetol=1.0 / qcomp=0.60 / qpmin=0 / qpmax=69 / qpstep=4 / vbv_maxrate=62500 / vbv_bufsize=78125 / nal_hrd=none / filler=0 / ip_ratio=1.40 / pb_ratio=1.30 / aq=1:1.00
  26. Default : Yes
  27. Forced : No
  28. Color range : Limited
  29. Color primaries : BT.709
  30. Transfer characteristics : BT.709
  31. Matrix coefficients : BT.709

  32. Audio
  33. ID : 2
  34. Format : AAC LC
  35. Format/Info : Advanced Audio Codec Low Complexity
  36. Codec ID : A_AAC-2
  37. Duration : 2 h 10 min
  38. Bit rate : 256 kb/s
  39. Channel(s) : 2 channels
  40. Channel layout : L R
  41. Sampling rate : 48.0 kHz
  42. Frame rate : 46.875 FPS (1024 SPF)
  43. Compression mode : Lossy
  44. Delay relative to video : -108 ms
  45. Stream size : 239 MiB (6%)
  46. Title : Shazam.2019.1080p.KORSUB.HDRip.x264.AAC2.0-STUTTERSHIT
  47. Language : English
  48. Default : Yes
  49. Forced : No
复制代码







游客,如果您要查看本帖隐藏内容请回复


回复

使用道具 举报

知名艺人

高清币
37
金钱
543
鲜花
0
在线时间
84 小时
最后登录
2019-5-13
发表于 2019-5-11 09:47:21 | 显示全部楼层
楼主发贴辛苦了,谢谢楼主分享
回复 支持 1 反对 0

使用道具 举报

人气偶像

高清币
0
金钱
1261
鲜花
0
在线时间
207 小时
最后登录
2019-5-22
发表于 2019-5-11 09:46:05 | 显示全部楼层
多谢楼主分享
回复 支持 1 反对 0

使用道具 举报

超级明星

高清币
2
金钱
9218
鲜花
0
在线时间
3137 小时
最后登录
2019-5-22
发表于 2019-5-11 09:45:47 | 显示全部楼层

楼主太厉害了!楼主,电影应该很好看我觉得中国高清论坛真是个好地方!
回复 支持 1 反对 0

使用道具 举报

人气偶像

高清币
2
金钱
763
鲜花
0
在线时间
116 小时
最后登录
2019-5-23
发表于 2019-5-11 12:56:54 | 显示全部楼层

楼主太厉害了!楼主,电影应该很好看我觉得中国高清论坛真是个好地方!
回复 支持 1 反对 0

使用道具 举报

superstar

高清币
2920
金钱
8885
鲜花
0
在线时间
1462 小时
最后登录
2019-5-23
发表于 2019-5-11 12:53:41 | 显示全部楼层

这个帖子不回对不起自己!我想我是一天也不能离开中国高清论坛
回复 支持 1 反对 0

使用道具 举报

永恒神话

高清币
8105
金钱
19485
鲜花
0
在线时间
4038 小时
最后登录
2019-5-23
发表于 2019-5-11 09:43:02 | 显示全部楼层
楼主发贴辛苦了,谢谢楼主分享!我觉得中国高清论坛是注册对了!
回复 支持 反对

使用道具 举报

好莱坞明星

高清币
622
金钱
6232
鲜花
0
在线时间
701 小时
最后登录
2019-5-11
发表于 2019-5-11 09:44:46 | 显示全部楼层
thanks thanks


回复 支持 反对

使用道具 举报

金鸡奖主角

高清币
20
金钱
3440
鲜花
0
在线时间
813 小时
最后登录
2019-5-24
发表于 2019-5-11 09:48:02 | 显示全部楼层
楼主发贴辛苦了,谢谢楼主分享!我觉得中国高清论坛是注册对了!
回复 支持 反对

使用道具 举报

人气偶像

高清币
8
金钱
1331
鲜花
0
在线时间
237 小时
最后登录
2019-5-23
发表于 2019-5-11 09:48:07 | 显示全部楼层

这东西我收了!谢谢楼主!中国高清论坛真好!
回复 支持 反对

使用道具 举报

金鸡奖主角

高清币
0
金钱
4401
鲜花
0
在线时间
1857 小时
最后登录
2019-5-23
发表于 2019-5-11 09:50:01 | 显示全部楼层

既然你诚信诚意的推荐了,那我就勉为其难的看看吧!中国高清论坛不走平凡路。
回复 支持 反对

使用道具 举报

人气偶像

高清币
8
金钱
1496
鲜花
0
在线时间
292 小时
最后登录
2019-5-23
发表于 2019-5-11 09:50:24 | 显示全部楼层
楼主发贴辛苦了,谢谢楼主分享!我觉得中国高清论坛是注册对了!
回复 支持 反对

使用道具 举报

懒得打字嘛,点击右侧快捷回复 【右侧内容,后台自定义】
您需要登录后才可以回帖 登录 | 立即注册

本版积分规则

QQ|手机版|小黑屋|中国高清论坛 ( 黔ICP备16007815号-1 )

GMT+8, 2019-5-24 08:44 , Processed in 0.542768 second(s), 30 queries .

Powered by Discuz! X3.4

© 2001-2017 Comsenz Inc.

快速回复 返回顶部 返回列表