请选择 进入手机版 | 继续访问电脑版

中国高清论坛

 找回密码
 立即注册
搜索
查看: 5470|回复: 900

[悬疑片] 夜色(导演剪辑版) Color.Of.Night.1994.DC.1080p.BluRay.x264.DTS-CHD 10.67 GiB

  [复制链接]

超级版主

高清币
16824
金钱
39052
鲜花
0
在线时间
12004 小时
最后登录
2019-8-25
发表于 2019-5-11 10:38:53 | 显示全部楼层 |阅读模式


◎译  名 夜色/黑夜之色
◎片  名 Color of Night
◎年  代 1994
◎国  家 美国
◎类  别 悬疑/爱情/惊悚
◎语  言 英语
◎IMDb评分 5.0/10 from 17,610 users
◎IMDb链接 http://www.imdb.com/title/tt0109456
◎片  长 2 h 19 min
◎导  演 Richard Rush
◎主  演 Jane March
       Bruce Willis

◎简  介

  比尔(布鲁斯·威利斯 Bruce Willis 饰)是一名心理医生,这个特殊的职业让他接触过许多精神抑郁生活压抑的病人,他们的压力在无形之中也转嫁到了比尔的身上,终于,当病人蜜雪儿(Kathleen Wilhoite 饰)在比尔眼前坠楼身亡后,比尔意识到,休息的时间到了。
  沮丧的比尔决定去找老友鲍勃(斯科特·巴库拉 Scott Bakula 饰)叙叙旧,不幸的是,在两人见面后没多久,鲍勃便被某个凶徒残忍的谋杀了,丝状可怖。为了查明老友死亡的真相,比尔展开了缜密的调查,在此过程中,一个名叫罗丝(珍·玛奇 Jane March 饰)的神秘女子浮出了水面,然而比尔不知道的是,当他逐步接近真相的同时,危险也在接近着他。

  1. Video
  2. ID : 1
  3. Format : AVC
  4. Format/Info : Advanced Video Codec
  5. Format profile : High@L4
  6. Format settings : CABAC / 1 Ref Frames
  7. Format settings, CABAC : Yes
  8. Format settings, ReFrames : 1 frame
  9. Format settings, GOP : M=1, N=24
  10. Codec ID : V_MPEG4/ISO/AVC
  11. Duration : 2 h 19 min
  12. Bit rate mode : Constant
  13. Bit rate : 9 480 kb/s
  14. Width : 1 920 pixels
  15. Height : 1 040 pixels
  16. Display aspect ratio : 1.85:1
  17. Frame rate mode : Constant
  18. Frame rate : 23.976 (24000/1001) FPS
  19. Color space : YUV
  20. Chroma subsampling : 4:2:0
  21. Bit depth : 8 bits
  22. Scan type : Progressive
  23. Bits/(Pixel*Frame) : 0.198
  24. Stream size : 9.19 GiB (86%)
  25. Default : Yes
  26. Forced : No
  27. Color range : Limited
  28. Color primaries : BT.709
  29. Transfer characteristics : BT.709
  30. Matrix coefficients : BT.709

  31. Audio
  32. ID : 2
  33. Format : DTS
  34. Format/Info : Digital Theater Systems
  35. Codec ID : A_DTS
  36. Duration : 2 h 19 min
  37. Bit rate mode : Constant
  38. Bit rate : 1 509 kb/s
  39. Channel(s) : 6 channels
  40. Channel layout : C L R Ls Rs LFE
  41. Sampling rate : 48.0 kHz
  42. Frame rate : 93.750 FPS (512 SPF)
  43. Bit depth : 16 bits
  44. Compression mode : Lossy
  45. Stream size : 1.47 GiB (14%)
  46. Language : English
  47. Default : Yes
  48. Forced : No

  49. Text
  50. ID : 3
  51. Format : UTF-8
  52. Codec ID : S_TEXT/UTF8
  53. Codec ID/Info : UTF-8 Plain Text
  54. Duration : 2 h 17 min
  55. Bit rate : 61 b/s
  56. Count of elements : 1718
  57. Stream size : 61.5 KiB (0%)
  58. Language : English
  59. Default : Yes
  60. Forced : No

  61. Menu
  62. 00:00:00.000 : en:(01)00:00:00:000
  63. 00:08:11.157 : en:(02)00:08:11:157
  64. 00:23:10.806 : en:(03)00:23:10:806
  65. 00:43:44.830 : en:(04)00:43:44:830
  66. 01:04:29.740 : en:(05)01:04:29:740
  67. 01:23:43.601 : en:(06)01:23:43:601
  68. 01:40:27.521 : en:(07)01:40:27:521
  69. 01:59:54.729 : en:(08)01:59:54:729
  70. 02:19:29.652 : en:(09)02:19:29:652
复制代码








游客,如果您要查看本帖隐藏内容请回复,您还可以免扣高清币免回复下载:https://www.85lou.com/plugin.php?id=wyfaka_url:url
回复

使用道具 举报

好莱坞明星

高清币
1478
金钱
5621
鲜花
0
在线时间
1184 小时
最后登录
2019-8-25
发表于 2019-5-11 12:55:23 | 显示全部楼层
楼主发贴辛苦了,谢谢楼主分享!
回复 支持 1 反对 0

使用道具 举报

人气偶像

高清币
1
金钱
1157
鲜花
0
在线时间
182 小时
最后登录
2019-8-25
发表于 2019-5-11 12:57:54 | 显示全部楼层

楼主发贴辛苦了,谢谢楼主分享!
回复 支持 1 反对 0

使用道具 举报

知名艺人

高清币
41
金钱
287
鲜花
0
在线时间
39 小时
最后登录
2019-8-24
发表于 2019-5-11 11:58:32 | 显示全部楼层
楼主太厉害了!楼主,电影应该很好看我觉得中国高清论坛真是个好地方!
回复 支持 1 反对 0

使用道具 举报

天王巨星

高清币
58
金钱
3547
鲜花
0
在线时间
1208 小时
最后登录
2019-8-25
发表于 2019-5-11 10:40:07 | 显示全部楼层
感谢楼主分享高清电影!
回复 支持 反对

使用道具 举报

影坛巨星

高清币
1961
金钱
7512
鲜花
0
在线时间
2345 小时
最后登录
2019-8-25
发表于 2019-5-11 10:41:51 | 显示全部楼层
楼主发贴辛苦了,谢谢楼主分享!我觉得中国高清论坛是注册对了!
回复 支持 反对

使用道具 举报

金鸡奖主角

高清币
293
金钱
4032
鲜花
0
在线时间
1381 小时
最后登录
2019-8-25
发表于 2019-5-11 10:42:39 | 显示全部楼层
楼主发贴辛苦了,谢谢楼主分享!我觉得中国高清论坛是注册对了!
回复 支持 反对

使用道具 举报

人气偶像

高清币
73
金钱
1131
鲜花
0
在线时间
127 小时
最后登录
2019-8-7
发表于 2019-5-11 10:42:47 | 显示全部楼层

我看不错噢 谢谢楼主!中国高清论坛越来越好!
回复 支持 反对

使用道具 举报

天王巨星

高清币
4
金钱
3278
鲜花
0
在线时间
492 小时
最后登录
2019-8-25
发表于 2019-5-11 10:43:55 | 显示全部楼层

楼主太厉害了!楼主,电影应该很好看我觉得中国高清论坛真是个好地方!
回复 支持 反对

使用道具 举报

superstar

高清币
4884
金钱
14958
鲜花
0
在线时间
1277 小时
最后登录
2019-8-25
发表于 2019-5-11 10:44:18 | 显示全部楼层
楼主发贴辛苦了,谢谢楼主分享!我觉得中国高清论坛是注册对了!
回复 支持 反对

使用道具 举报

永恒神话

高清币
12089
金钱
36354
鲜花
10
在线时间
2423 小时
最后登录
2019-8-25
发表于 2019-5-11 10:45:43 | 显示全部楼层

其实我一直觉得楼主的品味不错!呵呵!中国高清论坛太棒了!
回复 支持 反对

使用道具 举报

永恒神话

高清币
39362
金钱
78200
鲜花
0
在线时间
6708 小时
最后登录
2019-8-25
发表于 2019-5-11 10:45:48 | 显示全部楼层

楼主太厉害了!楼主,电影应该很好看我觉得中国高清论坛真是个好地方!
回复 支持 反对

使用道具 举报

超级明星

高清币
1918
金钱
6480
鲜花
0
在线时间
894 小时
最后登录
2019-8-25
发表于 2019-5-11 10:48:24 | 显示全部楼层

这东西我收了!谢谢楼主!中国高清论坛真好!
回复 支持 反对

使用道具 举报

懒得打字嘛,点击右侧快捷回复 【右侧内容,后台自定义】
您需要登录后才可以回帖 登录 | 立即注册

本版积分规则

QQ|手机版|小黑屋|中国高清论坛 ( 黔ICP备16007815号-1 )

GMT+8, 2019-8-25 21:17 , Processed in 0.061866 second(s), 26 queries .

Powered by Discuz! X3.4

© 2001-2017 Comsenz Inc.

快速回复 返回顶部 返回列表