请选择 进入手机版 | 继续访问电脑版

中国高清论坛

 找回密码
 立即注册
搜索
查看: 903|回复: 222

[奇幻片] 边境/边境奇谭(台)/边境奇闻(港) Border.2018.FRENCH.720p.BluRay.x264.AC3-EXTREME

  [复制链接]

超级版主

高清币
15802
金钱
36829
鲜花
-88
在线时间
11548 小时
最后登录
2019-5-24
发表于 2019-5-12 23:18:19 | 显示全部楼层 |阅读模式


◎译  名 边境/边境奇谭(台)/边境奇闻(港)
◎片  名 Gräns
◎年  代 2018
◎国  家 瑞典/丹麦
◎类  别 奇幻/爱情/惊悚
◎语  言 瑞典语
◎IMDb评分 7.1/10 from 10,510 users
◎IMDb链接 https://www.imdb.com/title/tt5501104/
◎片  长 1 h 45 min
◎导  演 阿里·阿巴西 Ali Abbasi
◎主  演 埃娃·梅兰德 Eva Melander
       埃罗·米洛诺夫 Eero Milonoff
       约根·托尔松 Jörgen Thorsson
     

◎简  介

  Tina是位效率极高的海关关员,她有着超常的嗅觉,仿佛能嗅到人们身上的罪恶感。但当Vore这个表面看上去很可疑的男子出现在她面前时,她的嗅觉却好像生平第一次失灵了。Tina知道Vore隐藏着一些事情,却不知道是什么。更糟糕的是,她甚至隐隐感到自己正被他吸引。她与Vore缔结了一段特殊的关系,不仅最终发现了他的真实身份,也意识到了与自己有关的真相:和Vore一样,她也不属于这个世界。她的整个一生都建立在一个谎言之上,现在,她必须做出选择:要么继续过着虚假的人生,要么直面Vore向她展示的可怕现实。

获奖记录

奥斯卡金像奖(2019;第91届)
提名
·奥斯卡奖-最佳化妆与发型 Göran Lundström   Pamela Goldammer  

  1. General
  2. Unique ID                      : 166514422705658423510338724767724624004 (0x7D4582E3A5A4508C7D5B81583E725884)
  3. Complete name                  : E:\迅雷下载\[ Torrent9.NZ ] Border.2018.FRENCH.720p.BluRay.x264.AC3-EXTREME.mkv
  4. Format                         : Matroska
  5. Format version                 : Version 4
  6. File size                      : 4.36 GiB
  7. Duration                       : 1 h 45 min
  8. Overall bit rate               : 5 926 kb/s
  9. Encoded date                   : UTC 2019-05-12 00:28:26
  10. Writing application            : mkvmerge v33.0.0 ('A Little Bit of Madness') 64-bit
  11. Writing library                : libebml v1.3.7 + libmatroska v1.5.0
  12. FileExtension_Invalid          : mkv mk3d mka mks

  13. Video
  14. ID                             : 4
  15. Format                         : AVC
  16. Format/Info                    : Advanced Video Codec
  17. Format profile                 : High@L4.1
  18. Format settings                : CABAC / 5 Ref Frames
  19. Format settings, CABAC         : Yes
  20. Format settings, ReFrames      : 5 frames
  21. Codec ID                       : V_MPEG4/ISO/AVC
  22. Duration                       : 1 h 45 min
  23. Bit rate                       : 5 485 kb/s
  24. Width                          : 1 280 pixels
  25. Height                         : 536 pixels
  26. Display aspect ratio           : 2.40:1
  27. Frame rate mode                : Constant
  28. Frame rate                     : 25.000 FPS
  29. Color space                    : YUV
  30. Chroma subsampling             : 4:2:0
  31. Bit depth                      : 8 bits
  32. Scan type                      : Progressive
  33. Bits/(Pixel*Frame)             : 0.320
  34. Stream size                    : 3.95 GiB (90%)
  35. Writing library                : x264 core 157 r2935 545de2f
  36. Encoding settings              : cabac=1 / ref=5 / deblock=1:0:0 / analyse=0x3:0x133 / me=umh / subme=8 / psy=1 / psy_rd=1.00:0.00 / mixed_ref=1 / me_range=16 / chroma_me=1 / trellis=2 / 8x8dct=1 / cqm=0 / deadzone=21,11 / fast_pskip=0 / chroma_qp_offset=-2 / threads=17 / lookahead_threads=2 / sliced_threads=0 / nr=0 / decimate=1 / interlaced=0 / bluray_compat=0 / constrained_intra=0 / bframes=3 / b_pyramid=2 / b_adapt=1 / b_bias=0 / direct=3 / weightb=1 / open_gop=0 / weightp=2 / keyint=250 / keyint_min=25 / scenecut=40 / intra_refresh=0 / rc_lookahead=50 / rc=2pass / mbtree=1 / bitrate=5485 / ratetol=1.0 / qcomp=0.60 / qpmin=0 / qpmax=69 / qpstep=4 / cplxblur=20.0 / qblur=0.5 / ip_ratio=1.40 / aq=1:1.00
  37. Language                       : Swedish
  38. Default                        : Yes
  39. Forced                         : No

  40. Audio
  41. ID                             : 1
  42. Format                         : AC-3
  43. Format/Info                    : Audio Coding 3
  44. Commercial name                : Dolby Digital
  45. Codec ID                       : A_AC3
  46. Duration                       : 1 h 45 min
  47. Bit rate mode                  : Constant
  48. Bit rate                       : 448 kb/s
  49. Channel(s)                     : 6 channels
  50. Channel layout                 : L R C LFE Ls Rs
  51. Sampling rate                  : 48.0 kHz
  52. Frame rate                     : 31.250 FPS (1536 SPF)
  53. Bit depth                      : 16 bits
  54. Compression mode               : Lossy
  55. Delay relative to video        : 4 ms
  56. Stream size                    : 338 MiB (8%)
  57. Language                       : French
  58. Service kind                   : Complete Main
  59. Default                        : Yes
  60. Forced                         : No

  61. Text #1
  62. ID                             : 2
  63. Format                         : UTF-8
  64. Codec ID                       : S_TEXT/UTF8
  65. Codec ID/Info                  : UTF-8 Plain Text
  66. Title                          : Forced
  67. Language                       : French
  68. Default                        : Yes
  69. Forced                         : No

  70. Text #2
  71. ID                             : 3
  72. Format                         : UTF-8
  73. Codec ID                       : S_TEXT/UTF8
  74. Codec ID/Info                  : UTF-8 Plain Text
  75. Title                          : French
  76. Language                       : French
  77. Default                        : No
  78. Forced                         : No

  79. Menu
  80. 00:00:00.000                   : :Chapter 01
  81. 00:06:18.720                   : :Chapter 02
  82. 00:11:46.080                   : :Chapter 03
  83. 00:16:57.120                   : :Chapter 04
  84. 00:26:18.720                   : :Chapter 05
  85. 00:38:33.120                   : :Chapter 06
  86. 00:50:35.040                   : :Chapter 07
  87. 00:59:54.720                   : :Chapter 08
  88. 01:07:23.040                   : :Chapter 09
  89. 01:18:00.480                   : :Chapter 10
  90. 01:25:11.040                   : :Chapter 11
  91. 01:40:05.760                   : :Chapter 12

复制代码

游客,如果您要查看本帖隐藏内容请回复

回复

使用道具 举报

金鸡奖主角

高清币
63
金钱
5832
鲜花
0
在线时间
3208 小时
最后登录
2019-5-24
发表于 2019-5-13 11:50:24 | 显示全部楼层

我看不错噢 谢谢楼主!中国高清论坛越来越好!
回复 支持 1 反对 0

使用道具 举报

影坛巨星

高清币
1209
金钱
10158
鲜花
0
在线时间
931 小时
最后登录
2019-5-24
发表于 2019-5-13 12:02:00 | 显示全部楼层

楼主太厉害了!楼主,电影应该很好看我觉得中国高清论坛真是个好地方!
回复 支持 1 反对 0

使用道具 举报

VIP贵宾

高清币
516
金钱
6681
鲜花
0
在线时间
1624 小时
最后登录
2019-5-23
发表于 2019-5-12 23:25:13 | 显示全部楼层
楼主发贴辛苦了,谢谢楼主分享!我觉得中国高清论坛是注册对了!
回复 支持 反对

使用道具 举报

天王巨星

高清币
575
金钱
1581
鲜花
0
在线时间
690 小时
最后登录
2019-5-24
发表于 2019-5-12 23:35:06 | 显示全部楼层
楼主发贴辛苦了,谢谢楼主分享!我觉得中国高清论坛是注册对了!
回复 支持 反对

使用道具 举报

影坛巨星

高清币
2214
金钱
9614
鲜花
0
在线时间
363 小时
最后登录
2019-5-24
发表于 2019-5-12 23:37:40 | 显示全部楼层
楼主发贴辛苦了,谢谢楼主分享!我觉得中国高清论坛是注册对了!
回复 支持 反对

使用道具 举报

天王巨星

高清币
204
金钱
2286
鲜花
0
在线时间
1044 小时
最后登录
2019-5-24
发表于 2019-5-12 23:39:38 | 显示全部楼层

楼主太厉害了!楼主,电影应该很好看我觉得中国高清论坛真是个好地方!
回复 支持 反对

使用道具 举报

人气偶像

高清币
82
金钱
1485
鲜花
0
在线时间
311 小时
最后登录
2019-5-24
发表于 2019-5-12 23:47:30 | 显示全部楼层

感谢楼主的无私分享!要想中国高清论坛好 就靠你我他
回复 支持 反对

使用道具 举报

知名艺人

高清币
7
金钱
283
鲜花
0
在线时间
78 小时
最后登录
2019-5-24
发表于 2019-5-13 00:04:30 | 显示全部楼层

我看不错噢 谢谢楼主!中国高清论坛越来越好!
回复 支持 反对

使用道具 举报

永恒神话

高清币
17335
金钱
25775
鲜花
0
在线时间
632 小时
最后登录
2019-5-24
发表于 2019-5-13 00:06:26 | 显示全部楼层
楼主发贴辛苦了,谢谢楼主分享!我觉得中国高清论坛是注册对了!
回复 支持 反对

使用道具 举报

superstar

高清币
3963
金钱
13601
鲜花
0
在线时间
1641 小时
最后登录
2019-5-23
发表于 2019-5-13 00:09:18 | 显示全部楼层
楼主发贴辛苦了,谢谢楼主分享!我觉得中国高清论坛是注册对了!
回复 支持 反对

使用道具 举报

金鸡奖主角

高清币
0
金钱
4606
鲜花
0
在线时间
1150 小时
最后登录
2019-5-23
发表于 2019-5-13 00:48:29 | 显示全部楼层

这东西我收了!谢谢楼主!中国高清论坛真好!
回复 支持 反对

使用道具 举报

懒得打字嘛,点击右侧快捷回复 【右侧内容,后台自定义】
您需要登录后才可以回帖 登录 | 立即注册

本版积分规则

QQ|手机版|小黑屋|85楼娱乐社区 ( 黔ICP备16007815号-1 )

GMT+8, 2019-5-24 10:49 , Processed in 0.057633 second(s), 29 queries .

Powered by Discuz! X3.4

© 2001-2017 Comsenz Inc.

快速回复 返回顶部 返回列表