请选择 进入手机版 | 继续访问电脑版

中国高清论坛

 找回密码
 立即注册
搜索
查看: 4406|回复: 831

[剧情片] 她的气味 Her.Smell.2018.1080p.AMZN.WEBRip.DDP5.1.x264-KiNGS 9.65 GiB

  [复制链接]

超级版主

高清币
15802
金钱
36829
鲜花
-88
在线时间
11545 小时
最后登录
2019-5-24
发表于 2019-5-13 16:58:58 | 显示全部楼层 |阅读模式


◎译  名 她的气味
◎片  名 Her Smel
◎年  代 2019
◎国  家 美国
◎类  别 剧情/音乐
◎语  言 英语
◎IMDb评分 6.2/10 from 824 users
◎IMDb链接 https://www.imdb.com/title/tt7942742/
◎片  长 2 h 15 min
◎导  演 亚历克斯·罗斯·派瑞 Alex Ross Perry
◎主  演 伊丽莎白·莫斯 Elisabeth Moss
       卡拉·迪瓦伊 Cara Delevingne
       丹·史蒂文斯 Dan Stevens


◎简  介

  影片讲述一位名叫Becky的朋克摇滚明星,她疯狂、极具破坏性,在尝试重获创造力,与冷静展开长达一年的斗争时,她与乐队、家人、粉丝的关系到达了临界点。
  1. Video
  2. ID : 1
  3. Format : AVC
  4. Format/Info : Advanced Video Codec
  5. Format profile : High@L4
  6. Format settings : CABAC / 4 Ref Frames
  7. Format settings, CABAC : Yes
  8. Format settings, ReFrames : 4 frames
  9. Codec ID : V_MPEG4/ISO/AVC
  10. Duration : 2 h 15 min
  11. Bit rate mode : Constant
  12. Bit rate : 10 000 kb/s
  13. Width : 1 920 pixels
  14. Height : 800 pixels
  15. Display aspect ratio : 2.40:1
  16. Frame rate mode : Constant
  17. Frame rate : 23.976 (24000/1001) FPS
  18. Color space : YUV
  19. Chroma subsampling : 4:2:0
  20. Bit depth : 8 bits
  21. Scan type : Progressive
  22. Bits/(Pixel*Frame) : 0.272
  23. Stream size : 9.04 GiB (94%)
  24. Default : Yes
  25. Forced : No
  26. Color range : Limited
  27. Color primaries : BT.709
  28. Transfer characteristics : BT.709
  29. Matrix coefficients : BT.709

  30. Audio
  31. ID : 2
  32. Format : E-AC-3
  33. Format/Info : Enhanced AC-3
  34. Commercial name : Dolby Digital Plus
  35. Codec ID : A_EAC3
  36. Duration : 2 h 15 min
  37. Bit rate mode : Constant
  38. Bit rate : 640 kb/s
  39. Channel(s) : 6 channels
  40. Channel layout : L R C LFE Ls Rs
  41. Sampling rate : 48.0 kHz
  42. Frame rate : 31.250 FPS (1536 SPF)
  43. Compression mode : Lossy
  44. Stream size : 621 MiB (6%)
  45. Language : English
  46. Service kind : Complete Main
  47. Default : Yes
  48. Forced : No

  49. Text #1
  50. ID : 3
  51. Format : UTF-8
  52. Codec ID : S_TEXT/UTF8
  53. Codec ID/Info : UTF-8 Plain Text
  54. Duration : 2 h 11 min
  55. Bit rate : 68 b/s
  56. Count of elements : 1956
  57. Stream size : 66.1 KiB (0%)
  58. Title : English
  59. Language : English
  60. Default : No
  61. Forced : No

  62. Text #2
  63. ID : 4
  64. Format : UTF-8
  65. Codec ID : S_TEXT/UTF8
  66. Codec ID/Info : UTF-8 Plain Text
  67. Duration : 2 h 11 min
  68. Bit rate : 72 b/s
  69. Count of elements : 2065
  70. Stream size : 69.5 KiB (0%)
  71. Title : English SDH
  72. Language : English
  73. Default : No
  74. Forced : No
复制代码






                                                                                                                                                                    
游客,如果您要查看本帖隐藏内容请回复

回复

使用道具 举报

天王巨星

高清币
639
金钱
1622
鲜花
0
在线时间
215 小时
最后登录
2019-5-23
发表于 2019-5-13 18:41:04 | 显示全部楼层
好片子,下了看看。
回复 支持 1 反对 0

使用道具 举报

好莱坞明星

高清币
379
金钱
6146
鲜花
0
在线时间
806 小时
最后登录
2019-5-23
发表于 2019-5-13 18:39:02 | 显示全部楼层

既然你诚信诚意的推荐了,那我就勉为其难的看看吧!中国高清论坛不走平凡路。
回复 支持 1 反对 0

使用道具 举报

金鸡奖主角

高清币
31
金钱
3647
鲜花
0
在线时间
331 小时
最后登录
2019-5-21
发表于 2019-5-13 18:37:10 | 显示全部楼层

楼主太厉害了!楼主,电影应该很好看我觉得中国高清论坛真是个好地方!
回复 支持 1 反对 0

使用道具 举报

跑龙套

高清币
6
金钱
10
鲜花
0
在线时间
1 小时
最后登录
2019-5-14
发表于 2019-5-13 18:49:20 | 显示全部楼层
少女汁源 很多资深老司机都在这,复制打开:www.na9.cc
回复 支持 1 反对 0

使用道具 举报

知名艺人

高清币
12
金钱
372
鲜花
0
在线时间
73 小时
最后登录
2019-5-23
发表于 2019-5-13 17:02:28 | 显示全部楼层

我看不错噢 谢谢楼主!中国高清论坛越来越好!
回复 支持 反对

使用道具 举报

人气偶像

高清币
0
金钱
1140
鲜花
0
在线时间
268 小时
最后登录
2019-5-22
发表于 2019-5-13 17:08:16 | 显示全部楼层
顶一个,谢谢分享了~!
回复 支持 反对

使用道具 举报

人气偶像

高清币
120
金钱
1510
鲜花
0
在线时间
284 小时
最后登录
2019-5-24
发表于 2019-5-13 17:09:25 | 显示全部楼层

楼主太厉害了!楼主,电影应该很好看我觉得中国高清论坛真是个好地方!
回复 支持 反对

使用道具 举报

永恒神话

高清币
37766
金钱
74616
鲜花
0
在线时间
6326 小时
最后登录
2019-5-24
发表于 2019-5-13 17:09:27 | 显示全部楼层
楼主发贴辛苦了,谢谢楼主分享!我觉得中国高清论坛是注册对了!
回复 支持 反对

使用道具 举报

跑龙套

高清币
0
金钱
73
鲜花
0
在线时间
4 小时
最后登录
2019-5-22
发表于 2019-5-13 17:11:07 | 显示全部楼层
谢谢楼主分享。楼主辛苦了。
回复 支持 反对

使用道具 举报

人气偶像

高清币
19
金钱
831
鲜花
0
在线时间
59 小时
最后登录
2019-5-20
发表于 2019-5-13 17:12:21 | 显示全部楼层
楼主发贴辛苦了,谢谢楼主分享!我觉得中国高清论坛是注册对了!
回复 支持 反对

使用道具 举报

永恒神话

高清币
17181
金钱
29957
鲜花
0
在线时间
2222 小时
最后登录
2019-5-23
发表于 2019-5-13 17:13:25 | 显示全部楼层
谢谢发片,辛苦了
回复 支持 反对

使用道具 举报

永恒神话

高清币
9292
金钱
16115
鲜花
0
在线时间
2577 小时
最后登录
2019-5-24
发表于 2019-5-13 17:15:08 | 显示全部楼层
楼主发贴辛苦了,谢谢楼主分享!我觉得中国高清论坛是注册对了!
回复 支持 反对

使用道具 举报

金鸡奖主角

高清币
799
金钱
2095
鲜花
0
在线时间
168 小时
最后登录
2019-5-23
发表于 2019-5-13 17:15:38 | 显示全部楼层

这个帖子不回对不起自己!我想我是一天也不能离开中国高清论坛
回复 支持 反对

使用道具 举报

懒得打字嘛,点击右侧快捷回复 【右侧内容,后台自定义】
您需要登录后才可以回帖 登录 | 立即注册

本版积分规则

QQ|手机版|小黑屋|中国高清论坛 ( 黔ICP备16007815号-1 )

GMT+8, 2019-5-24 09:04 , Processed in 0.074281 second(s), 30 queries .

Powered by Discuz! X3.4

© 2001-2017 Comsenz Inc.

快速回复 返回顶部 返回列表