请选择 进入手机版 | 继续访问电脑版

中国高清论坛

 找回密码
 立即注册
搜索
查看: 2260|回复: 437

[动作片] 狄仁杰之四大天王/狄仁杰3 D.D.T.F.H.K.2018.BDRip.1080p-Unknown 14.23 GiB

  [复制链接]

超级版主

高清币
16731
金钱
38852
鲜花
0
在线时间
11977 小时
最后登录
2019-8-19
发表于 2019-5-13 22:18:35 | 显示全部楼层 |阅读模式


◎片  名 狄仁杰3/狄仁杰之四大天王
◎片  名 Detective Dee: The Four Heavenly Kings
◎年  代 2018
◎国  家 中国大陆/香港
◎类  别 动作/悬疑/古装
◎语  言 普通话
◎IMDb评分 6.4/10 from 550 users
◎IMDB链接 https://www.imdb.com/title/tt6869538/
◎片  长 2h 11mn
◎导  演 徐克 Hark Tsui
◎主  演 赵又廷 Mark Chao
      冯绍峰 Shaofeng Feng
      林更新 Gengxin Lin
      阮经天 Ethan Juan
      刘嘉玲 Carina Lau
      马思纯 Sichun Ma
      盛鉴 Chien Sheng
      杨一威 Yiwei Yang
      宝日夫 Bao Ri Fu
      张傲月 Aoyue Zhang
      孙蛟龙 Jiaolong Sun
      汪汐潮 Xichao Wang
      释胜钢 Shenggang Shi
      李炳雷 Binglei Li

简介

  武则天受封天后,与唐高宗“二圣临朝”,权位扩升。与此同时,狄仁杰因大破神都龙王案,获御赐亢龙锏,掌管大理寺。武则天为拔除眼中钉,特命大理寺卿尉迟真金集结实力强劲的“异人组”,妄图夺锏。

  城中“冷雨斋”发生窃画案,报案人却中毒而亡。狄仁杰亦受到频频暗杀,神秘失踪。天后接管大理寺,借机四处搜寻亢龙锏,却皆无所获。另一边,尉迟真金顺着狄仁杰提供的线索在城郊天王庙找到了真正的亢龙锏,却因不欲交给“异人组”和天后而致其不满。

  “异人组”颇受天后重用,江湖方术风因此盛行,一股神秘诡谲势力“封魔族”随之悄然滋长。天后召“异人组”入宫,封头领为国师,意图取代狄仁杰,高宗却对江湖方术不以为意。岂料就在此时,朝柱上的金龙突然“活化”,高宗大喜,金龙却在众目睽睽之下重伤“异人组”,之后破顶而出,不知去处,随之失踪的还有“异人组”头领。而殿外,尉迟真金亲睹“自己”击杀金吾卫,“异人组”水月也受到天后面容的神秘人追杀,一时鬼怪幻影与诡谲图腾频现,人心惶惶。

  危难之际,狄仁杰重出江湖,步步设局,终使幕后主使“封魔族”浮出水面,其灭唐之心已昭然若揭。为保护二圣安危,守护大唐江山,狄仁杰与尉迟真金联手,在沙陀忠和水月等大理寺众士的协助下,与“封魔族”竭力苦战。
  1. General
  2. Unique ID : 189498654137178758584334220158630366442 (0x8E901CFD73FDDB89927B27B34BD00CEA)
  3. Complete name : G:\Detective.Dee.The.Four.Heavenly.Kings.2018.BDRip.1080p.mkv
  4. Format : Matroska
  5. Format version : Version 4 / Version 2
  6. File size : 14.2 GiB
  7. Duration : 2 h 12 min
  8. Overall bit rate : 15.4 Mb/s
  9. Encoded date : UTC 2019-05-13 08:43:43
  10. Writing application : mkvmerge v20.0.0 ('I Am The Sun') 64-bit
  11. Writing library : libebml v1.3.5 + libmatroska v1.4.8

  12. Video
  13. ID : 1
  14. Format : AVC
  15. Format/Info : Advanced Video Codec
  16. Format profile : High@L4.1
  17. Format settings : CABAC / 4 Ref Frames
  18. Format settings, CABAC : Yes
  19. Format settings, RefFrames : 4 frames
  20. Codec ID : V_MPEG4/ISO/AVC
  21. Duration : 2 h 12 min
  22. Bit rate : 13.7 Mb/s
  23. Width : 1 920 pixels
  24. Height : 1 040 pixels
  25. Display aspect ratio : 1.85:1
  26. Frame rate mode : Constant
  27. Frame rate : 23.976 (24000/1001) FPS
  28. Color space : YUV
  29. Chroma subsampling : 4:2:0
  30. Bit depth : 8 bits
  31. Scan type : Progressive
  32. Bits/(Pixel*Frame) : 0.287
  33. Stream size : 12.7 GiB (89%)
  34. Writing library : x264 core 142 r2431+42 c69a006 tMod [8-bit@4:2:0 X86_64]
  35. Encoding settings : cabac=1 / ref=4 / deblock=1:-3:-3 / analyse=0x3:0x113 / me=umh / subme=10 / psy=1 / fade_compensate=0.00 / psy_rd=1.00:0.05 / mixed_ref=1 / me_range=48 / chroma_me=1 / trellis=2 / 8x8dct=1 / cqm=0 / deadzone=21,11 / fast_pskip=0 / chroma_qp_offset=-2 / threads=48 / lookahead_threads=8 / sliced_threads=0 / nr=0 / decimate=1 / interlaced=0 / bluray_compat=0 / constrained_intra=0 / fgo=0 / bframes=8 / b_pyramid=2 / b_adapt=2 / b_bias=0 / direct=3 / weightb=1 / open_gop=0 / weightp=2 / keyint=250 / keyint_min=23 / scenecut=40 / intra_refresh=0 / rc_lookahead=40 / rc=crf / mbtree=0 / crf=19.0000 / qcomp=0.60 / qpmin=0:0:0 / qpmax=69:69:69 / qpstep=4 / vbv_maxrate=40000 / vbv_bufsize=30000 / crf_max=0.0 / nal_hrd=none / filler=0 / ip_ratio=1.40 / pb_ratio=1.30 / aq=3:0.80 / aq-sensitivity=10.00 / aq-factor=1.00:1.00:1.00 / aq2=0 / aq3=0
  36. Language : Chinese
  37. Default : Yes
  38. Forced : No
  39. Color range : Limited
  40. Matrix coefficients : BT.709

  41. Audio #1
  42. ID : 2
  43. Format : AC-3
  44. Format/Info : Audio Coding 3
  45. Codec ID : A_AC3
  46. Duration : 2 h 12 min
  47. Bit rate mode : Constant
  48. Bit rate : 192 kb/s
  49. Channel(s) : 2 channels
  50. Channel positions : Front: L R
  51. Sampling rate : 48.0 kHz
  52. Frame rate : 31.250 FPS (1536 SPF)
  53. Bit depth : 16 bits
  54. Compression mode : Lossy
  55. Stream size : 181 MiB (1%)
  56. Title : MVO HDrezka Studio
  57. Language : Russian
  58. Service kind : Complete Main
  59. Default : Yes
  60. Forced : No

  61. Audio #2
  62. ID : 3
  63. Format : DTS
  64. Format/Info : Digital Theater Systems
  65. Codec ID : A_DTS
  66. Duration : 2 h 12 min
  67. Bit rate mode : Constant
  68. Bit rate : 1 509 kb/s
  69. Channel(s) : 6 channels
  70. Channel positions : Front: L C R, Side: L R, LFE
  71. Sampling rate : 48.0 kHz
  72. Frame rate : 93.750 FPS (512 SPF)
  73. Bit depth : 24 bits
  74. Compression mode : Lossy
  75. Stream size : 1.39 GiB (10%)
  76. Language : Chinese
  77. Default : No
  78. Forced : No

  79. Text #1
  80. ID : 4
  81. Format : UTF-8
  82. Codec ID : S_TEXT/UTF8
  83. Codec ID/Info : UTF-8 Plain Text
  84. Duration : 2 h 7 min
  85. Bit rate : 83 b/s
  86. Count of elements : 1422
  87. Stream size : 77.9 KiB (0%)
  88. Language : Russian
  89. Default : No
  90. Forced : No

  91. Text #2
  92. ID : 5
  93. Format : UTF-8
  94. Codec ID : S_TEXT/UTF8
  95. Codec ID/Info : UTF-8 Plain Text
  96. Duration : 2 h 7 min
  97. Bit rate : 46 b/s
  98. Count of elements : 1421
  99. Stream size : 43.0 KiB (0%)
  100. Language : English
  101. Default : No
  102. Forced : No

  103. Menu
  104. 00:00:00.000 : en:00:00:00.000
  105. 00:09:37.535 : en:00:09:37.535
  106. 00:20:46.912 : en:00:20:46.912
  107. 00:31:00.317 : en:00:31:00.317
  108. 00:40:30.970 : en:00:40:30.970
  109. 00:47:54.747 : en:00:47:54.747
  110. 01:00:14.486 : en:01:00:14.486
  111. 01:08:47.332 : en:01:08:47.332
  112. 01:22:26.567 : en:01:22:26.567
  113. 01:33:52.669 : en:01:33:52.669
  114. 01:42:48.871 : en:01:42:48.871
  115. 01:59:52.977 : en:01:59:52.977
复制代码





点评

怎么没种子  发表于 2019-5-14 19:18
回复

使用道具 举报

超级明星

高清币
2302
金钱
6374
鲜花
0
在线时间
742 小时
最后登录
2019-8-17
发表于 2019-5-13 22:46:16 | 显示全部楼层
谢谢楼主分享!
回复 支持 1 反对 0

使用道具 举报

金鸡奖主角

高清币
189
金钱
3979
鲜花
0
在线时间
1603 小时
最后登录
2019-8-18
发表于 2019-5-13 22:53:50 | 显示全部楼层

这个帖子不回对不起自己!我想我是一天也不能离开中国高清论坛
回复 支持 1 反对 0

使用道具 举报

天王巨星

高清币
72
金钱
1941
鲜花
0
在线时间
208 小时
最后登录
2019-8-18
发表于 2019-5-13 22:20:59 | 显示全部楼层
楼主发贴辛苦了,谢谢楼主分享!我觉得中国高清论坛是注册对了!
回复 支持 反对

使用道具 举报

永恒神话

高清币
514
金钱
18636
鲜花
0
在线时间
2516 小时
最后登录
2019-8-19
发表于 2019-5-13 22:22:48 | 显示全部楼层

楼主太厉害了!楼主,电影应该很好看我觉得中国高清论坛真是个好地方!
回复 支持 反对

使用道具 举报

跑龙套

高清币
2
金钱
99
鲜花
0
在线时间
14 小时
最后登录
2019-7-6
发表于 2019-5-13 22:27:22 | 显示全部楼层

楼主太厉害了!楼主,电影应该很好看我觉得中国高清论坛真是个好地方!
回复 支持 反对

使用道具 举报

superstar

高清币
1659
金钱
9942
鲜花
0
在线时间
1098 小时
最后登录
2019-8-18
发表于 2019-5-13 22:28:26 | 显示全部楼层
楼主发贴辛苦了,谢谢楼主分享!我觉得中国高清论坛是注册对了!
回复 支持 反对

使用道具 举报

superstar

高清币
2050
金钱
10436
鲜花
0
在线时间
5918 小时
最后登录
2019-8-18
发表于 2019-5-13 22:29:42 | 显示全部楼层

感谢楼主的无私分享!要想中国高清论坛好 就靠你我他
回复 支持 反对

使用道具 举报

人气偶像

高清币
4
金钱
1732
鲜花
0
在线时间
256 小时
最后登录
2019-8-17
发表于 2019-5-13 22:32:33 | 显示全部楼层
感谢楼主分享
回复 支持 反对

使用道具 举报

人气偶像

高清币
19
金钱
1472
鲜花
0
在线时间
179 小时
最后登录
2019-8-18
发表于 2019-5-13 22:33:08 | 显示全部楼层
感谢楼主分享精彩电影!
回复 支持 反对

使用道具 举报

永恒神话

高清币
9335
金钱
12768
鲜花
0
在线时间
1230 小时
最后登录
2019-8-4
发表于 2019-5-13 22:33:27 | 显示全部楼层
楼主发贴辛苦了,谢谢楼主分享!我觉得中国高清论坛是注册对了!
回复 支持 反对

使用道具 举报

人气偶像

高清币
19
金钱
1472
鲜花
0
在线时间
179 小时
最后登录
2019-8-18
发表于 2019-5-13 22:33:30 | 显示全部楼层
感谢楼主分享精彩电影!感谢楼主分享精彩电影!
回复 支持 反对

使用道具 举报

懒得打字嘛,点击右侧快捷回复 【右侧内容,后台自定义】
您需要登录后才可以回帖 登录 | 立即注册

本版积分规则

QQ|手机版|小黑屋|中国高清论坛 ( 黔ICP备16007815号-1 )

GMT+8, 2019-8-19 10:17 , Processed in 0.062704 second(s), 27 queries .

Powered by Discuz! X3.4

© 2001-2017 Comsenz Inc.

快速回复 返回顶部 返回列表