请选择 进入手机版 | 继续访问电脑版

中国高清论坛

 找回密码
 立即注册
搜索
查看: 1139|回复: 240

[犯罪片] 残酷青春 Savage.Youth.2018.WEB-DL.1080p-Unknown 4.01 GiB

  [复制链接]

超级版主

高清币
16731
金钱
38852
鲜花
0
在线时间
11956 小时
最后登录
2019-8-19
发表于 2019-5-13 22:36:41 | 显示全部楼层 |阅读模式


◎译  名 残酷青春
◎片  名 Savage Youth
◎年  代 2018
◎产  地 美国
◎类  别 犯罪/剧情
◎语  言 英语
◎IMDb评分 7.2/10 from 23444 users
◎IMDB链接 https://www.imdb.com/title/tt7959026/
◎片  长 1 h 39 min
◎导  演 Curtis Johnson
◎主  演 特昆·里奇蒙德 Tequan Richmond
       格蕾丝·维多利亚·考克斯 Grace Victoria Cox
       威尔·布里顿 Will Brittain
       克洛伊·莱文 Chloe Levine
       米切尔·爱德华兹 Mitchell Edwards

◎简  介

   
  Six young lives collide in the most horrific and twisted of ways. Based on true events.


  1. General
  2. Unique ID : 81634535253520589882207018419141915156 (0x3D6A3D5609C8E4D7895EBF9FC392B214)
  3. Complete name : G:Savage.Youth.2018.WEB-DL.1080p.mkv
  4. Format : Matroska
  5. Format version : Version 4 / Version 2
  6. File size : 4.01 GiB
  7. Duration : 1 h 39 min
  8. Overall bit rate : 5 794 kb/s
  9. Encoded date : UTC 2019-05-12 02:19:23
  10. Writing application : mkvmerge v20.0.0 ('I Am The Sun') 64-bit
  11. Writing library : libebml v1.3.5 + libmatroska v1.4.8

  12. Video
  13. ID : 1
  14. Format : AVC
  15. Format/Info : Advanced Video Codec
  16. Format profile : High@L4
  17. Format settings : CABAC / 4 Ref Frames
  18. Format settings, CABAC : Yes
  19. Format settings, RefFrames : 4 frames
  20. Codec ID : V_MPEG4/ISO/AVC
  21. Duration : 1 h 39 min
  22. Bit rate : 5 216 kb/s
  23. Width : 1 920 pixels
  24. Height : 1 080 pixels
  25. Display aspect ratio : 16:9
  26. Frame rate mode : Constant
  27. Frame rate : 23.976 (24000/1001) FPS
  28. Color space : YUV
  29. Chroma subsampling : 4:2:0
  30. Bit depth : 8 bits
  31. Scan type : Progressive
  32. Bits/(Pixel*Frame) : 0.105
  33. Stream size : 3.61 GiB (90%)
  34. Language : English
  35. Default : Yes
  36. Forced : No
  37. Color range : Limited
  38. Color primaries : BT.709
  39. Transfer characteristics : BT.709
  40. Matrix coefficients : BT.709

  41. Audio #1
  42. ID : 2
  43. Format : AC-3
  44. Format/Info : Audio Coding 3
  45. Codec ID : A_AC3
  46. Duration : 1 h 39 min
  47. Bit rate mode : Constant
  48. Bit rate : 192 kb/s
  49. Channel(s) : 2 channels
  50. Channel positions : Front: L R
  51. Sampling rate : 48.0 kHz
  52. Frame rate : 31.250 FPS (1536 SPF)
  53. Bit depth : 16 bits
  54. Compression mode : Lossy
  55. Stream size : 136 MiB (3%)
  56. Title : MVO, HDRezka Studio
  57. Language : Russian
  58. Service kind : Complete Main
  59. Default : Yes
  60. Forced : No

  61. Audio #2
  62. ID : 3
  63. Format : AC-3
  64. Format/Info : Audio Coding 3
  65. Codec ID : A_AC3
  66. Duration : 1 h 39 min
  67. Bit rate mode : Constant
  68. Bit rate : 384 kb/s
  69. Channel(s) : 6 channels
  70. Channel positions : Front: L C R, Side: L R, LFE
  71. Sampling rate : 48.0 kHz
  72. Frame rate : 31.250 FPS (1536 SPF)
  73. Bit depth : 16 bits
  74. Compression mode : Lossy
  75. Stream size : 272 MiB (7%)
  76. Language : English
  77. Service kind : Complete Main
  78. Default : No
  79. Forced : No

  80. Text
  81. ID : 4
  82. Format : UTF-8
  83. Codec ID : S_TEXT/UTF8
  84. Codec ID/Info : UTF-8 Plain Text
  85. Duration : 1 h 38 min
  86. Bit rate : 77 b/s
  87. Count of elements : 1396
  88. Stream size : 55.7 KiB (0%)
  89. Language : English
  90. Default : No
  91. Forced : No

  92. Menu
  93. 00:00:00.000 : en:1
  94. 00:15:00.000 : en:2
  95. 00:30:00.000 : en:3
  96. 00:45:00.000 : en:4
  97. 01:00:00.000 : en:5
  98. 01:15:00.000 : en:6
  99. 01:30:00.000 : en:7
复制代码




游客,如果您要查看本帖隐藏内容请回复,您还可以免扣高清币免回复下载:https://www.85lou.com/plugin.php?id=wyfaka_url:url
回复

使用道具 举报

天王巨星

高清币
1
金钱
3201
鲜花
0
在线时间
462 小时
最后登录
2019-8-12
发表于 2019-5-13 23:28:39 | 显示全部楼层

这个帖子不回对不起自己!我想我是一天也不能离开中国高清论坛
回复 支持 1 反对 0

使用道具 举报

金鸡奖主角

高清币
289
金钱
4011
鲜花
0
在线时间
1373 小时
最后登录
2019-8-19
发表于 2019-5-13 23:31:51 | 显示全部楼层

楼主太厉害了!楼主,电影应该很好看我觉得中国高清论坛真是个好地方!
回复 支持 1 反对 0

使用道具 举报

永恒神话

高清币
9335
金钱
12768
鲜花
0
在线时间
1230 小时
最后登录
2019-8-4
发表于 2019-5-13 22:36:58 | 显示全部楼层
楼主发贴辛苦了,谢谢楼主分享!我觉得中国高清论坛是注册对了!
回复 支持 反对

使用道具 举报

超级明星

高清币
2302
金钱
6374
鲜花
0
在线时间
742 小时
最后登录
2019-8-17
发表于 2019-5-13 22:45:00 | 显示全部楼层
谢谢楼主分享!
回复 支持 反对

使用道具 举报

超级明星

高清币
1912
金钱
6444
鲜花
0
在线时间
887 小时
最后登录
2019-8-19
发表于 2019-5-13 22:50:15 | 显示全部楼层
楼主发贴辛苦了,谢谢楼主分享!我觉得中国高清论坛是注册对了!
回复 支持 反对

使用道具 举报

跑龙套

高清币
1
金钱
71
鲜花
0
在线时间
20 小时
最后登录
2019-8-4
发表于 2019-5-13 22:53:15 | 显示全部楼层
这个帖子不回对不起自己!我想我是一天也不能离开中国高清论坛。
回复 支持 反对

使用道具 举报

金鸡奖主角

高清币
797
金钱
4340
鲜花
0
在线时间
700 小时
最后登录
2019-8-15
发表于 2019-5-13 22:55:54 | 显示全部楼层

既然你诚信诚意的推荐了,那我就勉为其难的看看吧!中国高清论坛不走平凡路。
回复 支持 反对

使用道具 举报

永恒神话

高清币
18358
金钱
31822
鲜花
0
在线时间
2444 小时
最后登录
2019-8-19
发表于 2019-5-13 23:01:05 | 显示全部楼层
谢谢发片,辛苦了
回复 支持 反对

使用道具 举报

金鸡奖主角

高清币
2
金钱
5103
鲜花
0
在线时间
2128 小时
最后登录
2019-8-18
发表于 2019-5-13 23:01:16 | 显示全部楼层
楼主发贴辛苦了,谢谢楼主分享!我觉得中国高清论坛是注册对了!
回复 支持 反对

使用道具 举报

永恒神话

高清币
15284
金钱
24554
鲜花
0
在线时间
2383 小时
最后登录
2019-8-16
发表于 2019-5-13 23:02:09 | 显示全部楼层

感谢楼主的无私分享!要想中国高清论坛好 就靠你我他
回复 支持 反对

使用道具 举报

人气偶像

高清币
91
金钱
740
鲜花
0
在线时间
64 小时
最后登录
2019-8-18
发表于 2019-5-13 23:23:22 | 显示全部楼层

这东西我收了!谢谢楼主!中国高清论坛真好!
回复 支持 反对

使用道具 举报

懒得打字嘛,点击右侧快捷回复 【右侧内容,后台自定义】
您需要登录后才可以回帖 登录 | 立即注册

本版积分规则

QQ|手机版|小黑屋|中国高清论坛 ( 黔ICP备16007815号-1 )

GMT+8, 2019-8-19 09:17 , Processed in 0.065448 second(s), 26 queries .

Powered by Discuz! X3.4

© 2001-2017 Comsenz Inc.

快速回复 返回顶部 返回列表