请选择 进入手机版 | 继续访问电脑版

中国高清论坛

 找回密码
 立即注册
搜索
查看: 1341|回复: 317

[喜剧片] 抱歉打扰 Sorry.to.Bother.You.2018.MULTi.1080p.BluRay.x264.AC3-EXTREME 8.29 GiB

  [复制链接]

超级版主

高清币
15802
金钱
36829
鲜花
-88
在线时间
11545 小时
最后登录
2019-5-24
发表于 2019-5-15 11:26:41 | 显示全部楼层 |阅读模式




◎译  名 抱歉打扰/扮工室上位攻略(港)
◎片  名 Sorry to Bother You
◎年  代 2018
◎产  地 美国
◎类  别 喜剧/奇幻/科幻
◎语  言 英语
◎IMDb评分 7.0/10 from 39,089 userss
◎IMDB链接 https://www.imdb.com/title/tt5688932/
◎片  长 1 h 50 min
◎导  演 布茨·赖利 Boots Riley
◎主  演 勒凯斯·斯坦菲尔德 Lakeith Stanfield
       泰莎·汤普森 Tessa Thompson
       杰梅因·福勒 Jermaine Fowler
       欧玛瑞·哈德威克 Omari Hardwick


◎简  介


  一个自尊心极强的黑人电话推销员刚在提升业绩方面找到了捷径,便无意发现了隐藏在公司背后的黑暗秘密,他不得不在保持沉 默和说出真相间做出选择。

  1. General
  2. Unique ID                      : 227059610628826536654344231494271975961 (0xAAD2171FAD34B01DCF1644C53B0D4219)
  3. Complete name                  : E:\迅雷下载\[ Torrent9.NZ ] Sorry.to.Bother.You.2018.MULTi.1080p.BluRay.x264.AC3-EXTREME.mkv
  4. Format                         : Matroska
  5. Format version                 : Version 4
  6. File size                      : 8.29 GiB
  7. Duration                       : 1 h 50 min
  8. Overall bit rate               : 10.7 Mb/s
  9. Encoded date                   : UTC 2019-05-14 11:03:28
  10. Writing application            : mkvmerge v33.0.0 ('A Little Bit of Madness') 64-bit
  11. Writing library                : libebml v1.3.7 + libmatroska v1.5.0
  12. FileExtension_Invalid          : mkv mk3d mka mks

  13. Video
  14. ID                             : 4
  15. Format                         : AVC
  16. Format/Info                    : Advanced Video Codec
  17. Format profile                 : High@L4.1
  18. Format settings                : CABAC / 5 Ref Frames
  19. Format settings, CABAC         : Yes
  20. Format settings, ReFrames      : 5 frames
  21. Codec ID                       : V_MPEG4/ISO/AVC
  22. Duration                       : 1 h 50 min
  23. Bit rate                       : 8 756 kb/s
  24. Width                          : 1 920 pixels
  25. Height                         : 808 pixels
  26. Display aspect ratio           : 2.40:1
  27. Frame rate mode                : Constant
  28. Frame rate                     : 23.976 FPS
  29. Color space                    : YUV
  30. Chroma subsampling             : 4:2:0
  31. Bit depth                      : 8 bits
  32. Scan type                      : Progressive
  33. Bits/(Pixel*Frame)             : 0.235
  34. Stream size                    : 6.61 GiB (80%)
  35. Writing library                : x264 core 157 r2932 303c484
  36. Encoding settings              : cabac=1 / ref=5 / deblock=1:0:0 / analyse=0x3:0x133 / me=umh / subme=7 / psy=1 / psy_rd=1.00:0.00 / mixed_ref=1 / me_range=16 / chroma_me=1 / trellis=1 / 8x8dct=1 / cqm=0 / deadzone=21,11 / fast_pskip=0 / chroma_qp_offset=-2 / threads=25 / lookahead_threads=4 / sliced_threads=0 / nr=0 / decimate=1 / interlaced=0 / bluray_compat=0 / constrained_intra=0 / bframes=3 / b_pyramid=2 / b_adapt=1 / b_bias=0 / direct=1 / weightb=1 / open_gop=0 / weightp=2 / keyint=250 / keyint_min=23 / scenecut=40 / intra_refresh=0 / rc_lookahead=40 / rc=2pass / mbtree=1 / bitrate=8756 / ratetol=1.0 / qcomp=0.60 / qpmin=0 / qpmax=69 / qpstep=4 / cplxblur=20.0 / qblur=0.5 / ip_ratio=1.40 / aq=1:1.00
  37. Language                       : English
  38. Default                        : Yes
  39. Forced                         : No

  40. Audio #1
  41. ID                             : 1
  42. Format                         : AC-3
  43. Format/Info                    : Audio Coding 3
  44. Commercial name                : Dolby Digital
  45. Codec ID                       : A_AC3
  46. Duration                       : 1 h 50 min
  47. Bit rate mode                  : Constant
  48. Bit rate                       : 448 kb/s
  49. Channel(s)                     : 6 channels
  50. Channel layout                 : L R C LFE Ls Rs
  51. Sampling rate                  : 48.0 kHz
  52. Frame rate                     : 31.250 FPS (1536 SPF)
  53. Bit depth                      : 16 bits
  54. Compression mode               : Lossy
  55. Delay relative to video        : 28 ms
  56. Stream size                    : 355 MiB (4%)
  57. Language                       : French
  58. Service kind                   : Complete Main
  59. Default                        : Yes
  60. Forced                         : No

  61. Audio #2
  62. ID                             : 5
  63. Format                         : DTS
  64. Format/Info                    : Digital Theater Systems
  65. Codec ID                       : A_DTS
  66. Duration                       : 1 h 50 min
  67. Bit rate mode                  : Constant
  68. Bit rate                       : 1 509 kb/s
  69. Channel(s)                     : 6 channels
  70. Channel layout                 : C L R Ls Rs LFE
  71. Sampling rate                  : 48.0 kHz
  72. Frame rate                     : 93.750 FPS (512 SPF)
  73. Bit depth                      : 24 bits
  74. Compression mode               : Lossy
  75. Stream size                    : 1.17 GiB (14%)
  76. Language                       : English
  77. Default                        : No
  78. Forced                         : No

  79. Text #1
  80. ID                             : 2
  81. Format                         : UTF-8
  82. Codec ID                       : S_TEXT/UTF8
  83. Codec ID/Info                  : UTF-8 Plain Text
  84. Title                          : Forced
  85. Language                       : French
  86. Default                        : Yes
  87. Forced                         : No

  88. Text #2
  89. ID                             : 3
  90. Format                         : UTF-8
  91. Codec ID                       : S_TEXT/UTF8
  92. Codec ID/Info                  : UTF-8 Plain Text
  93. Title                          : French
  94. Language                       : French
  95. Default                        : No
  96. Forced                         : No

  97. Menu
  98. 00:00:00.000                   : en:00:00:00.000
  99. 00:03:35.340                   : en:00:03:35.340
  100. 00:07:31.493                   : en:00:07:31.493
  101. 00:13:04.325                   : en:00:13:04.325
  102. 00:18:54.800                   : en:00:18:54.800
  103. 00:26:37.638                   : en:00:26:37.638
  104. 00:32:27.946                   : en:00:32:27.946
  105. 00:37:08.268                   : en:00:37:08.268
  106. 00:40:08.615                   : en:00:40:08.615
  107. 00:43:46.374                   : en:00:43:46.374
  108. 00:46:59.191                   : en:00:46:59.191
  109. 00:49:18.831                   : en:00:49:18.831
  110. 00:52:30.939                   : en:00:52:30.939
  111. 00:57:29.780                   : en:00:57:29.780
  112. 01:00:18.490                   : en:01:00:18.490
  113. 01:05:14.202                   : en:01:05:14.202
  114. 01:07:52.485                   : en:01:07:52.485
  115. 01:13:48.299                   : en:01:13:48.299
  116. 01:17:13.128                   : en:01:17:13.128
  117. 01:21:46.902                   : en:01:21:46.902
  118. 01:27:03.343                   : en:01:27:03.343
  119. 01:31:37.409                   : en:01:31:37.409
  120. 01:38:49.132                   : en:01:38:49.132
  121. 01:44:59.752                   : en:01:44:59.752

复制代码

游客,如果您要查看本帖隐藏内容请回复

回复

使用道具 举报

跑龙套

高清币
9
金钱
23
鲜花
0
在线时间
15 小时
最后登录
2019-5-15
发表于 2019-5-15 13:25:27 | 显示全部楼层
少女汁源 很多资深老司机都在这 复制打开 :www.com4.vip
回复 支持 1 反对 1

使用道具 举报

影坛巨星

高清币
1208
金钱
8267
鲜花
0
在线时间
1057 小时
最后登录
2019-5-23
发表于 2019-5-15 11:45:24 | 显示全部楼层

楼主太厉害了!楼主,电影应该很好看我觉得中国高清论坛真是个好地方!
回复 支持 1 反对 0

使用道具 举报

知名艺人

高清币
163
金钱
376
鲜花
0
在线时间
36 小时
最后登录
2019-5-23
发表于 2019-5-15 12:01:41 | 显示全部楼层
谢谢楼主分享
回复 支持 1 反对 0

使用道具 举报

superstar

高清币
3491
金钱
9608
鲜花
0
在线时间
1753 小时
最后登录
2019-5-23
发表于 2019-5-15 12:07:59 | 显示全部楼层

这个帖子不回对不起自己!我想我是一天也不能离开中国高清论坛
回复 支持 1 反对 0

使用道具 举报

知名艺人

高清币
16
金钱
551
鲜花
0
在线时间
98 小时
最后登录
2019-5-15
发表于 2019-5-15 13:19:05 | 显示全部楼层
我觉得中国高清论坛真是个好地方!
回复 支持 1 反对 0

使用道具 举报

天王巨星

高清币
46
金钱
3065
鲜花
0
在线时间
609 小时
最后登录
2019-5-23
发表于 2019-5-15 13:19:36 | 显示全部楼层

这东西我收了!谢谢楼主!中国高清论坛真好!
回复 支持 1 反对 0

使用道具 举报

永恒神话

高清币
17315
金钱
25755
鲜花
0
在线时间
632 小时
最后登录
2019-5-24
发表于 2019-5-15 11:29:39 | 显示全部楼层
楼主发贴辛苦了,谢谢楼主分享!我觉得中国高清论坛是注册对了!
回复 支持 反对

使用道具 举报

金鸡奖主角

高清币
224
金钱
4409
鲜花
0
在线时间
2165 小时
最后登录
2019-5-24
发表于 2019-5-15 11:32:54 | 显示全部楼层

楼主太厉害了!楼主,电影应该很好看我觉得中国高清论坛真是个好地方!
回复 支持 反对

使用道具 举报

人气偶像

高清币
9
金钱
2269
鲜花
0
在线时间
1032 小时
最后登录
2019-5-22
发表于 2019-5-15 11:33:20 | 显示全部楼层
楼主太厉害了!楼主,电影应该很好看我觉得中国高清论坛真是个好地方!
回复 支持 反对

使用道具 举报

超级明星

高清币
844
金钱
7039
鲜花
0
在线时间
1669 小时
最后登录
2019-5-23
发表于 2019-5-15 11:37:35 | 显示全部楼层
楼主发贴辛苦了,谢谢楼主分享!我觉得中国高清论坛是注册对了!
回复 支持 反对

使用道具 举报

金鸡奖主角

高清币
485
金钱
2745
鲜花
0
在线时间
426 小时
最后登录
2019-5-23
发表于 2019-5-15 11:38:23 | 显示全部楼层
楼主太厉害
回复 支持 反对

使用道具 举报

金鸡奖主角

高清币
5
金钱
3566
鲜花
0
在线时间
1561 小时
最后登录
2019-5-23
发表于 2019-5-15 11:38:23 | 显示全部楼层
楼主发贴辛苦了,谢谢楼主分享!
回复 支持 反对

使用道具 举报

superstar

高清币
3184
金钱
11521
鲜花
0
在线时间
3607 小时
最后登录
2019-5-24
发表于 2019-5-15 11:38:57 | 显示全部楼层

楼主,大恩不言谢了!中国高清论坛是最棒的!
回复 支持 反对

使用道具 举报

天王巨星

高清币
810
金钱
1747
鲜花
0
在线时间
145 小时
最后登录
2019-5-23
发表于 2019-5-15 11:39:43 | 显示全部楼层
楼主发贴辛苦了,谢谢楼主分享!我觉得中国高清论坛是注册对了!
回复 支持 反对

使用道具 举报

影坛巨星

高清币
2752
金钱
7908
鲜花
0
在线时间
1996 小时
最后登录
2019-5-23
发表于 2019-5-15 11:40:38 | 显示全部楼层
楼主发贴辛苦了,谢谢楼主分享!我觉得中国高清论坛是注册对了!
回复 支持 反对

使用道具 举报

懒得打字嘛,点击右侧快捷回复 【右侧内容,后台自定义】
您需要登录后才可以回帖 登录 | 立即注册

本版积分规则

QQ|手机版|小黑屋|中国高清论坛 ( 黔ICP备16007815号-1 )

GMT+8, 2019-5-24 08:50 , Processed in 0.067650 second(s), 30 queries .

Powered by Discuz! X3.4

© 2001-2017 Comsenz Inc.

快速回复 返回顶部 返回列表