请选择 进入手机版 | 继续访问电脑版

中国高清论坛

 找回密码
 立即注册
搜索
查看: 1645|回复: 256

[喜剧片] 难道不浪漫 Isnt.It.Romantic.2019.1080p.BluRay.x264.DTS-HD.MA.5.1-FGT 7.91 GiB

  [复制链接]

超级版主

高清币
16824
金钱
39052
鲜花
0
在线时间
12004 小时
最后登录
2019-8-25
发表于 2019-5-15 16:58:03 | 显示全部楼层 |阅读模式


◎译  名 难道不浪漫/这不浪漫吗/好不浪漫(台)
◎片  名 Isn't It Romantic
◎年  代 2018
◎国  家 美国
◎类  别 喜剧/奇幻/爱情
◎语  言 英语
◎IMDb评分 6.3/10 from 2,860 users
◎IMDB链接 https://www.imdb.com/title/tt2452244/
◎片  长 1 h 28 min
◎导  演 托德·施特劳斯-舒尔森 Todd Strauss-Schulson
◎主  演 蕾蓓尔·威尔森 Rebel Wilson
       利亚姆·海姆斯沃斯 Liam Hemsworth
       亚当·德维尼 Adam DeVine
       佩丽冉卡·曹帕拉 Priyanka Chopra
      

◎简  介

  纽约市建筑师娜塔莉(瑞贝尔·威尔森饰)在工作上一向力求表现。可惜不但没人请她设计下一座摩天大楼,她还老是被差遣做些送咖啡和贝果的杂务。更雪上加霜的是,对爱情总是嗤之以鼻的她,因遇到抢匪而失去意识,醒来之后发现她的噩梦竟然成真:她的人生变成了一出浪漫喜剧,而且女主角不是别人,正是她自己。


  1. Video
  2. ID : 1
  3. Format : AVC
  4. Format/Info : Advanced Video Codec
  5. Format profile : High@L4.1
  6. Format settings : CABAC / 5 Ref Frames
  7. Format settings, CABAC : Yes
  8. Format settings, ReFrames : 5 frames
  9. Codec ID : V_MPEG4/ISO/AVC
  10. Duration : 1 h 28 min
  11. Bit rate : 9 121 kb/s
  12. Width : 1 920 pixels
  13. Height : 808 pixels
  14. Display aspect ratio : 2.40:1
  15. Frame rate mode : Constant
  16. Frame rate : 23.976 (24000/1001) FPS
  17. Color space : YUV
  18. Chroma subsampling : 4:2:0
  19. Bit depth : 8 bits
  20. Scan type : Progressive
  21. Bits/(Pixel*Frame) : 0.245
  22. Stream size : 5.62 GiB (71%)
  23. Title : Isnt.It.Romantic.2019.1080p.BluRay.x264.DTS-HD.MA.5.1-FGT
  24. Writing library : x264 core 157 r2970 5493be8
  25. Encoding settings : cabac=1 / ref=5 / deblock=1:-3:-3 / analyse=0x3:0x113 / me=umh / subme=8 / psy=1 / psy_rd=1.00:0.00 / mixed_ref=1 / me_range=16 / chroma_me=1 / trellis=1 / 8x8dct=1 / cqm=0 / deadzone=21,11 / fast_pskip=1 / chroma_qp_offset=-2 / threads=25 / lookahead_threads=4 / sliced_threads=0 / nr=0 / decimate=1 / interlaced=0 / bluray_compat=0 / constrained_intra=0 / bframes=3 / b_pyramid=2 / b_adapt=1 / b_bias=0 / direct=3 / weightb=1 / open_gop=0 / weightp=2 / keyint=250 / keyint_min=23 / scenecut=40 / intra_refresh=0 / rc_lookahead=50 / rc=2pass / mbtree=1 / bitrate=9121 / ratetol=1.0 / qcomp=0.60 / qpmin=0 / qpmax=69 / qpstep=4 / cplxblur=20.0 / qblur=0.5 / ip_ratio=1.40 / aq=1:1.00
  26. Language : English
  27. Default : Yes
  28. Forced : No

  29. Audio
  30. ID : 2
  31. Format : DTS XLL
  32. Format/Info : Digital Theater Systems
  33. Commercial name : DTS-HD Master Audio
  34. Codec ID : A_DTS
  35. Duration : 1 h 28 min
  36. Bit rate mode : Variable
  37. Bit rate : 3 685 kb/s
  38. Channel(s) : 6 channels
  39. Channel layout : C L R Ls Rs LFE
  40. Sampling rate : 48.0 kHz
  41. Frame rate : 93.750 FPS (512 SPF)
  42. Bit depth : 24 bits
  43. Compression mode : Lossless
  44. Stream size : 2.27 GiB (29%)
  45. Title : Isnt.It.Romantic.2019.1080p.BluRay.x264.DTS-HD.MA.5.1-FGT
  46. Language : English
  47. Default : Yes
  48. Forced : No

  49. Text #1
  50. ID : 3
  51. Format : UTF-8
  52. Codec ID : S_TEXT/UTF8
  53. Codec ID/Info : UTF-8 Plain Text
  54. Duration : 1 h 22 min
  55. Bit rate : 85 b/s
  56. Count of elements : 1621
  57. Stream size : 51.3 KiB (0%)
  58. Title : English-SRT
  59. Language : English
  60. Default : Yes
  61. Forced : No

  62. Text #2
  63. ID : 4
  64. Format : PGS
  65. Muxing mode : zlib
  66. Codec ID : S_HDMV/PGS
  67. Codec ID/Info : Picture based subtitle format used on BDs/HD-DVDs
  68. Duration : 1 h 22 min
  69. Bit rate : 58.1 kb/s
  70. Count of elements : 3500
  71. Stream size : 34.1 MiB (0%)
  72. Title : English-PGS
  73. Language : English
  74. Default : No
  75. Forced : No

  76. Menu
  77. 00:00:00.000 : en:Chapter 01
  78. 00:07:52.889 : en:Chapter 02
  79. 00:14:06.804 : en:Chapter 03
  80. 00:22:53.664 : en:Chapter 04
  81. 00:29:43.198 : en:Chapter 05
  82. 00:35:49.856 : en:Chapter 06
  83. 00:44:08.104 : en:Chapter 07
  84. 00:49:59.496 : en:Chapter 08
  85. 00:56:01.525 : en:Chapter 09
  86. 01:02:22.572 : en:Chapter 10
  87. 01:10:16.963 : en:Chapter 11
  88. 01:14:35.721 : en:Chapter 12
  89. 01:24:08.919 : en:Chapter 13
复制代码







游客,如果您要查看本帖隐藏内容请回复,您还可以免扣高清币免回复下载:https://www.85lou.com/plugin.php?id=wyfaka_url:url

回复

使用道具 举报

人气偶像

高清币
52
金钱
883
鲜花
0
在线时间
200 小时
最后登录
2019-8-25
发表于 2019-5-15 17:34:04 | 显示全部楼层

这个帖子不回对不起自己!我想我是一天也不能离开中国高清论坛
回复 支持 1 反对 0

使用道具 举报

superstar

高清币
2073
金钱
10475
鲜花
0
在线时间
5928 小时
最后登录
2019-8-25
发表于 2019-5-15 17:30:40 | 显示全部楼层

感谢楼主的无私分享!要想中国高清论坛好 就靠你我他
回复 支持 1 反对 0

使用道具 举报

超级明星

高清币
328
金钱
8214
鲜花
0
在线时间
3010 小时
最后登录
2019-8-25
发表于 2019-5-15 17:04:48 | 显示全部楼层
多谢楼主分享资源
回复 支持 反对

使用道具 举报

超级明星

高清币
328
金钱
8214
鲜花
0
在线时间
3010 小时
最后登录
2019-8-25
发表于 2019-5-15 17:05:04 | 显示全部楼层
多谢楼主分享资源
回复 支持 反对

使用道具 举报

超级明星

高清币
328
金钱
8214
鲜花
0
在线时间
3010 小时
最后登录
2019-8-25
发表于 2019-5-15 17:08:30 | 显示全部楼层
多谢楼主分享资源
回复 支持 反对

使用道具 举报

金鸡奖主角

高清币
35
金钱
3424
鲜花
0
在线时间
466 小时
最后登录
2019-8-21
发表于 2019-5-15 17:13:48 | 显示全部楼层

楼主太厉害了!楼主,电影应该很好看我觉得中国高清论坛真是个好地方!
回复 支持 反对

使用道具 举报

人气偶像

高清币
3
金钱
1123
鲜花
0
在线时间
494 小时
最后登录
2019-8-25
发表于 2019-5-15 17:19:09 | 显示全部楼层
最近电影更新的好快呀
回复 支持 反对

使用道具 举报

永恒神话

高清币
28141
金钱
38971
鲜花
0
在线时间
952 小时
最后登录
2019-8-25
发表于 2019-5-15 17:21:42 | 显示全部楼层
楼主发贴辛苦了,谢谢楼主分享!我觉得中国高清论坛是注册对了!
回复 支持 反对

使用道具 举报

superstar

高清币
3688
金钱
12238
鲜花
0
在线时间
3734 小时
最后登录
2019-8-25
发表于 2019-5-15 17:22:16 | 显示全部楼层

楼主,大恩不言谢了!中国高清论坛是最棒的!
回复 支持 反对

使用道具 举报

人气偶像

高清币
112
金钱
1058
鲜花
0
在线时间
182 小时
最后登录
2019-8-19
发表于 2019-5-15 17:24:48 | 显示全部楼层

楼主太厉害了!楼主,电影应该很好看我觉得中国高清论坛真是个好地方!
回复 支持 反对

使用道具 举报

永恒神话

高清币
18482
金钱
32021
鲜花
0
在线时间
2468 小时
最后登录
2019-8-25
发表于 2019-5-15 17:25:50 | 显示全部楼层
谢谢发片,辛苦了
回复 支持 反对

使用道具 举报

懒得打字嘛,点击右侧快捷回复 【右侧内容,后台自定义】
您需要登录后才可以回帖 登录 | 立即注册

本版积分规则

QQ|手机版|小黑屋|中国高清论坛 ( 黔ICP备16007815号-1 )

GMT+8, 2019-8-25 21:18 , Processed in 0.056135 second(s), 26 queries .

Powered by Discuz! X3.4

© 2001-2017 Comsenz Inc.

快速回复 返回顶部 返回列表