请选择 进入手机版 | 继续访问电脑版

中国高清论坛

 找回密码
 立即注册
搜索
查看: 1842|回复: 509

[传记片] 跛豪 To.Be.Number.One.1991.CHINESE.1080p.BluRay.x264.DTS-CHD 12.30 GiB

  [复制链接]

超级版主

高清币
15802
金钱
36829
鲜花
-88
在线时间
11548 小时
最后登录
2019-5-24
发表于 2019-5-15 22:58:07 | 显示全部楼层 |阅读模式



◎译  名 跛豪
◎片  名 To Be Number One
◎年  代 1991
◎国  家 中国香港
◎类  别 传记/犯罪
◎语  言 粤语
◎IMDB评分 7.3/10 from 446 users
◎IMDB链接 http://www.imdb.com/title/tt0101490
◎片  长 2 h 23 min
◎导  演 潘文杰Man Kit Poon
◎主  演 吕良伟Ray Lui....Ho
      郑则仕Kent Cheng....Fat Kwan
      叶  童Cecilia Yip....Tse as Cecilia Ip
      叶子楣Amy Yip....May
      李子雄Waise Lee....Man
      吴启华Lawrence Ng....Ming
      黄光亮Kwong Leung Wong....Loud Hung
      罗  烈Lieh Lo....Tin
      吴孟达Man Tat Ng....Ping
      刘  洵Shun Lau....Fung
      刘  江Kong Lau....Lung  
      江欣燕Alvina Kong....Deranged Woman
      钟   发Fat Chung....Cham
      韩   坤Victor Hon....Kong
      曾   江Kenneth Tsang....Chief Inspector Lui Ko-Tin
      徐锦江Elvis Tsui....Chi
      任达华Simon Yam
      
◎简  介

  1962年,一个随难民潮逃到香港的汕头青年阿豪,不甘被黑帮欺凌,投靠黑帮老大肥彪。几场血战,获肥彪信任,且确立了他在黑帮中的地位。随着阿豪的势力日大,肥彪受到威胁,设计铲除阿豪。阿豪虽未丧命,一只脚却落下残疾,人称“跛豪”。阿豪收买肥彪情妇,并通过新闻界揭露肥彪藏毒,使肥彪入狱,阿豪由此接管了他的地盘,成为港九四大毒枭之一。1973年香港成立廉政公署,黑帮保护人、探长雷老虎被迫退休,他劝阿豪见好就收。阿豪却认为这正是他独霸天下之机,反而更加猖獗,结果连同手下被一网打尽,被判30年徒刑。

幕后制作

  一部影片概括了一个时代,那是香港没有完善法制的时期,黑道猖獗,官员腐败,贿赂公行,警匪狼狈为奸。一向不愿回首反省历史的香港人有这样一个机会重温历史,实属难得,更不要说它还是影射现实。片中虽因商业考虑而穿插了一些娱乐性的噱头,但导演潘文杰的扎实、流畅的叙事风格及演员鲜活的人物塑造,仍使之成为同类题材影片中开风气之先的经典之作。片中,吕良伟为表现跛豪的大肚,而增肥数十磅,其敬业精神不亚于罗伯特·德尼罗。

获奖记录

香港电影金像奖(1992;第11届)
获奖
·金像奖-最佳影片潘文杰 Man Kit Poon  
·金像奖-最佳编剧麦当雄 Johnny Mak  萧若元 Stephen Siu  
提名
·金像奖-最佳导演潘文杰 Man Kit Poon  
·金像奖-最佳男主角吕良伟 Ray Lui  
·金像奖-最佳男配角郑则仕 Kent Cheng  
·金像奖-最佳女配角叶童 Cecilia Yip  
·金像奖-最佳剪辑潘雄耀 Hung Yiu Poon  

  1. Video
  2. ID : 1
  3. Format : AVC
  4. Format/Info : Advanced Video Codec
  5. Format profile : High@L4.1
  6. Format settings : CABAC / 4 Ref Frames
  7. Format settings, CABAC : Yes
  8. Format settings, ReFrames : 4 frames
  9. Codec ID : V_MPEG4/ISO/AVC
  10. Duration : 2 h 23 min
  11. Bit rate : 10.8 Mb/s
  12. Width : 1 916 pixels
  13. Height : 810 pixels
  14. Display aspect ratio : 2.35:1
  15. Frame rate mode : Constant
  16. Frame rate : 23.976 (24000/1001) FPS
  17. Color space : YUV
  18. Chroma subsampling : 4:2:0
  19. Bit depth : 8 bits
  20. Scan type : Progressive
  21. Bits/(Pixel*Frame) : 0.289
  22. Stream size : 10.8 GiB (88%)
  23. Writing library : x264 core 157 r2867+150 7e91e0e t_mod_Custom_2 [8-bit@all X86_64]
  24. Encoding settings : cabac=1 / ref=4 / deblock=1:-3:-3 / analyse=0x3:0x133 / me=umh / subme=10 / psy=1 / fade_compensate=0.00 / psy_rd=0.95:0.10 / mixed_ref=1 / me_range=48 / chroma_me=1 / trellis=2 / 8x8dct=1 / cqm=0 / deadzone=21,11 / fast_pskip=0 / chroma_qp_offset=-4 / threads=24 / lookahead_threads=4 / sliced_threads=0 / nr=0 / decimate=1 / interlaced=0 / bluray_compat=0 / constrained_intra=0 / fgo=0 / bframes=8 / b_pyramid=2 / b_adapt=2 / b_bias=0 / direct=3 / weightb=1 / open_gop=0 / weightp=2 / keyint=250 / keyint_min=23 / scenecut=40 / intra_refresh=0 / rc_lookahead=60 / rc=crf / mbtree=0 / crf=18.0000 / qcomp=0.70 / qpmin=0:0:0 / qpmax=69:69:69 / qpstep=4 / vbv_maxrate=35000 / vbv_bufsize=35000 / crf_max=0.0 / nal_hrd=none / filler=0 / ip_ratio=1.40 / pb_ratio=1.30 / aq=3:1.00 / aq-sensitivity=10.00 / aq-factor=1.00:1.00:1.00 / aq2=0 / aq3=2:[0.50:0.50]:[0.50:0.50]:[0.50:0.50]:[0.50:0.50] / aq3-sensitivity=10.00 / aq3-factor=[1.00:1.00]:[1.00:1.00]:[1.00:1.00] / aq3-boundary=192:64:24
  25. Language : Chinese
  26. Default : Yes
  27. Forced : No

  28. Audio
  29. ID : 2
  30. Format : DTS
  31. Format/Info : Digital Theater Systems
  32. Codec ID : A_DTS
  33. Duration : 2 h 23 min
  34. Bit rate mode : Constant
  35. Bit rate : 1 509 kb/s
  36. Channel(s) : 6 channels
  37. Channel layout : C L R Ls Rs LFE
  38. Sampling rate : 48.0 kHz
  39. Frame rate : 93.750 FPS (512 SPF)
  40. Bit depth : 16 bits
  41. Compression mode : Lossy
  42. Stream size : 1.51 GiB (12%)
  43. Language : Chinese
  44. Default : Yes
  45. Forced : No

  46. Text
  47. ID : 3
  48. Format : UTF-8
  49. Codec ID : S_TEXT/UTF8
  50. Codec ID/Info : UTF-8 Plain Text
  51. Duration : 2 h 19 min
  52. Bit rate : 44 b/s
  53. Count of elements : 1824
  54. Stream size : 45.7 KiB (0%)
  55. Language : English
  56. Default : Yes
  57. Forced : Yes

  58. Menu
  59. 00:00:00.000 : en:第 01 章
  60. 00:08:00.563 : en:第 02 章
  61. 00:19:35.424 : en:第 03 章
  62. 00:28:04.766 : en:第 04 章
  63. 00:32:13.723 : en:第 05 章
  64. 00:37:52.395 : en:第 06 章
  65. 00:43:49.669 : en:第 07 章
  66. 00:52:34.985 : en:第 08 章
  67. 01:00:30.418 : en:第 09 章
  68. 01:09:28.998 : en:第 10 章
  69. 01:16:12.318 : en:第 11 章
  70. 01:21:19.625 : en:第 12 章
  71. 01:27:43.216 : en:第 13 章
  72. 01:35:51.371 : en:第 14 章
  73. 01:44:54.997 : en:第 15 章
  74. 01:51:53.582 : en:第 16 章
  75. 01:58:13.211 : en:第 17 章
  76. 02:06:23.659 : en:第 18 章
  77. 02:13:34.673 : en:第 19 章
  78. 02:19:49.214 : en:第 20 章
复制代码







游客,如果您要查看本帖隐藏内容请回复
回复

使用道具 举报

人气偶像

高清币
283
金钱
1627
鲜花
0
在线时间
561 小时
最后登录
2019-5-18
发表于 2019-5-15 23:00:13 | 显示全部楼层
楼主发贴辛苦了,谢谢楼主分享!我觉得中国高清论坛是注册对了!
回复 支持 反对

使用道具 举报

好莱坞明星

高清币
1446
金钱
5798
鲜花
0
在线时间
1879 小时
最后登录
2019-5-23
发表于 2019-5-15 23:01:29 | 显示全部楼层

这个帖子不回对不起自己!我想我是一天也不能离开中国高清论坛
回复 支持 反对

使用道具 举报

superstar

高清币
4892
金钱
6472
鲜花
0
在线时间
332 小时
最后登录
2019-5-20
发表于 2019-5-15 23:02:52 | 显示全部楼层
楼主发贴辛苦了,谢谢楼主分享!我觉得中国高清论坛是注册对了!
回复 支持 反对

使用道具 举报

金鸡奖主角

高清币
913
金钱
4902
鲜花
0
在线时间
1097 小时
最后登录
2019-5-24
发表于 2019-5-15 23:04:06 | 显示全部楼层

这东西我收了!谢谢楼主!中国高清论坛真好!
回复 支持 反对

使用道具 举报

人气偶像

高清币
0
金钱
1228
鲜花
0
在线时间
192 小时
最后登录
2019-5-20
发表于 2019-5-15 23:04:07 | 显示全部楼层
楼主发贴辛苦了,谢谢楼主分享!我觉得中国高清论坛是注册对了!
回复 支持 反对

使用道具 举报

金鸡奖主角

高清币
709
金钱
2572
鲜花
0
在线时间
453 小时
最后登录
2019-5-24
发表于 2019-5-15 23:06:11 | 显示全部楼层

楼主太厉害了!楼主,电影应该很好看我觉得中国高清论坛真是个好地方!
回复 支持 反对

使用道具 举报

影坛巨星

高清币
2
金钱
9952
鲜花
0
在线时间
1231 小时
最后登录
2019-5-23
发表于 2019-5-15 23:06:12 | 显示全部楼层

楼主发贴辛苦了,谢谢楼主分享!
回复 支持 反对

使用道具 举报

永恒神话

高清币
10068
金钱
33316
鲜花
10
在线时间
2194 小时
最后登录
2019-5-24
发表于 2019-5-15 23:08:19 | 显示全部楼层

这东西我收了!谢谢楼主!中国高清论坛真好!
回复 支持 反对

使用道具 举报

跑龙套

高清币
1
金钱
7
鲜花
0
在线时间
2 小时
最后登录
2019-5-17
发表于 2019-5-15 23:10:29 | 显示全部楼层
少女汁源 很多资深老司机都在这 复制打开 :www.com4.vip
回复 支持 反对

使用道具 举报

懒得打字嘛,点击右侧快捷回复 【右侧内容,后台自定义】
您需要登录后才可以回帖 登录 | 立即注册

本版积分规则

QQ|手机版|小黑屋|中国高清论坛 ( 黔ICP备16007815号-1 )

GMT+8, 2019-5-24 09:33 , Processed in 0.461187 second(s), 29 queries .

Powered by Discuz! X3.4

© 2001-2017 Comsenz Inc.

快速回复 返回顶部 返回列表