请选择 进入手机版 | 继续访问电脑版

中国高清论坛

 找回密码
 立即注册
搜索
查看: 1883|回复: 322

[惊悚片] 回火2 Backdraft.2.2019.MULTi.1080p.BluRay.DTS.x264-LOST 7.95 GiB

  [复制链接]

超级版主

高清币
16375
金钱
38085
鲜花
0
在线时间
11818 小时
最后登录
2019-7-21
发表于 2019-5-16 12:42:20 | 显示全部楼层 |阅读模式


◎译  名 回火2
◎片  名 Backdraft 2
◎年  代 2018
◎产  地 美国/加拿大
◎类  别 惊悚/恐怖
◎语  言 英语
◎IMDb评分 6.0/10 from 4189 userss
◎IMDB链接 https://www.imdb.com/title/tt4504044/
◎片  长 1 h 50 min
◎导  演 Gonzalo López-Gallego
◎主  演 Donald Sutherland...Ronald Bartel
       William Baldwin...Brian McCaffrey
       Joe Anderson...Sean McCaffrey
       Alastair Mackenzie...Captain White


◎简  介


  1991年大热影片《回火》的续集。影片主角在芝加哥联邦调查局工作,此次他要追查一名故意纵火的军火商……

  1. General
  2. Complete name                  : D:\迅雷下载\[ Torrent9.NZ ] Backdraft.2.2019.MULTi.1080p.BluRay.DTS.x264-LOST.mkv
  3. Format                         : Matroska
  4. Format version                 : Version 2
  5. File size                      : 7.95 GiB
  6. Duration                       : 1 h 41 min
  7. Overall bit rate               : 11.2 Mb/s
  8. Writing application            : mkvmerge v6.6.0 ('The Edge Of The In Between') built on Dec 1 2013 17:55:00
  9. Writing library                : libebml v1.3.0 + libmatroska v1.4.1
  10. FileExtension_Invalid          : mkv mk3d mka mks

  11. Video
  12. ID                             : 1
  13. Format                         : AVC
  14. Format/Info                    : Advanced Video Codec
  15. Format profile                 : High@L4.1
  16. Format settings                : CABAC / 4 Ref Frames
  17. Format settings, CABAC         : Yes
  18. Format settings, ReFrames      : 4 frames
  19. Codec ID                       : V_MPEG4/ISO/AVC
  20. Duration                       : 1 h 41 min
  21. Bit rate                       : 8 890 kb/s
  22. Width                          : 1 920 pixels
  23. Height                         : 960 pixels
  24. Display aspect ratio           : 2.000
  25. Frame rate mode                : Constant
  26. Frame rate                     : 23.976 (24000/1001) FPS
  27. Color space                    : YUV
  28. Chroma subsampling             : 4:2:0
  29. Bit depth                      : 8 bits
  30. Scan type                      : Progressive
  31. Bits/(Pixel*Frame)             : 0.201
  32. Stream size                    : 6.17 GiB (78%)
  33. Writing library                : x264 core 157 r2969 d4099dd
  34. Encoding settings              : cabac=1 / ref=4 / deblock=1:0:0 / analyse=0x3:0x113 / me=umh / subme=8 / psy=1 / psy_rd=1.00:0.00 / mixed_ref=1 / me_range=16 / chroma_me=1 / trellis=1 / 8x8dct=1 / cqm=0 / deadzone=21,11 / fast_pskip=1 / chroma_qp_offset=-2 / threads=18 / lookahead_threads=3 / sliced_threads=0 / nr=0 / decimate=1 / interlaced=0 / bluray_compat=0 / constrained_intra=0 / bframes=3 / b_pyramid=2 / b_adapt=2 / b_bias=0 / direct=3 / weightb=1 / open_gop=0 / weightp=2 / keyint=240 / keyint_min=24 / scenecut=40 / intra_refresh=0 / rc_lookahead=50 / rc=2pass / mbtree=1 / bitrate=8890 / ratetol=1.0 / qcomp=0.60 / qpmin=0 / qpmax=69 / qpstep=4 / cplxblur=20.0 / qblur=0.5 / ip_ratio=1.40 / aq=1:1.00
  35. Language                       : English
  36. Default                        : Yes
  37. Forced                         : No

  38. Audio #1
  39. ID                             : 2
  40. Format                         : DTS
  41. Format/Info                    : Digital Theater Systems
  42. Codec ID                       : A_DTS
  43. Duration                       : 1 h 41 min
  44. Bit rate mode                  : Constant
  45. Bit rate                       : 768 kb/s
  46. Channel(s)                     : 6 channels
  47. Channel positions              : Front: L C R, Side: L R, LFE
  48. Sampling rate                  : 48.0 kHz
  49. Frame rate                     : 93.750 FPS (512 SPF)
  50. Bit depth                      : 24 bits
  51. Compression mode               : Lossy
  52. Stream size                    : 560 MiB (7%)
  53. Title                          : French DTS 768kbps
  54. Language                       : French
  55. Default                        : Yes
  56. Forced                         : No

  57. Audio #2
  58. ID                             : 3
  59. Format                         : DTS
  60. Format/Info                    : Digital Theater Systems
  61. Codec ID                       : A_DTS
  62. Duration                       : 1 h 41 min
  63. Bit rate mode                  : Constant
  64. Bit rate                       : 1 509 kb/s
  65. Channel(s)                     : 6 channels
  66. Channel positions              : Front: L C R, Side: L R, LFE
  67. Sampling rate                  : 48.0 kHz
  68. Frame rate                     : 93.750 FPS (512 SPF)
  69. Bit depth                      : 24 bits
  70. Compression mode               : Lossy
  71. Stream size                    : 1.07 GiB (14%)
  72. Title                          : English DTS 1509kbps
  73. Language                       : English
  74. Default                        : Yes
  75. Forced                         : No

  76. Text #1
  77. ID                             : 4
  78. Format                         : UTF-8
  79. Codec ID                       : S_TEXT/UTF8
  80. Codec ID/Info                  : UTF-8 Plain Text
  81. Title                          : Forced
  82. Language                       : French
  83. Default                        : Yes
  84. Forced                         : Yes

  85. Text #2
  86. ID                             : 5
  87. Format                         : UTF-8
  88. Codec ID                       : S_TEXT/UTF8
  89. Codec ID/Info                  : UTF-8 Plain Text
  90. Title                          : French
  91. Language                       : French
  92. Default                        : No
  93. Forced                         : No

  94. Menu
  95. 00:00:00.000                   : en:00:00:00.000
  96. 00:06:07.993                   : en:00:06:07.993
  97. 00:10:56.698                   : en:00:10:56.698
  98. 00:16:13.181                   : en:00:16:13.181
  99. 00:20:27.893                   : en:00:20:27.893
  100. 00:24:08.405                   : en:00:24:08.405
  101. 00:31:55.247                   : en:00:31:55.247
  102. 00:35:33.256                   : en:00:35:33.256
  103. 00:41:04.629                   : en:00:41:04.629
  104. 00:46:02.051                   : en:00:46:02.051
  105. 00:49:40.477                   : en:00:49:40.477
  106. 00:53:43.971                   : en:00:53:43.971
  107. 00:57:37.579                   : en:00:57:37.579
  108. 01:02:10.101                   : en:01:02:10.101
  109. 01:09:56.317                   : en:01:09:56.317
  110. 01:14:24.919                   : en:01:14:24.919
  111. 01:20:46.759                   : en:01:20:46.759
  112. 01:26:40.862                   : en:01:26:40.862
  113. 01:30:57.869                   : en:01:30:57.869
  114. 01:37:18.374                   : en:01:37:18.374

复制代码

游客,如果您要查看本帖隐藏内容请回复,您还可以免扣高清币免回复下载:https://www.85lou.com/plugin.php?id=threed_vip


回复

使用道具 举报

人气偶像

高清币
360
金钱
628
鲜花
0
在线时间
90 小时
最后登录
2019-7-21
发表于 2019-5-16 12:46:49 | 显示全部楼层

我看不错噢 谢谢楼主!中国高清论坛越来越好!
回复 支持 反对

使用道具 举报

金鸡奖主角

高清币
524
金钱
4957
鲜花
0
在线时间
2333 小时
最后登录
2019-7-22
发表于 2019-5-16 12:48:24 | 显示全部楼层

我看不错噢 谢谢楼主!中国高清论坛越来越好!
回复 支持 反对

使用道具 举报

人气偶像

高清币
2
金钱
1226
鲜花
0
在线时间
252 小时
最后登录
2019-7-16
发表于 2019-5-16 12:50:26 | 显示全部楼层
楼主发贴辛苦了,谢谢楼主分享!我觉得中国高清论坛是注册对了!
回复 支持 反对

使用道具 举报

人气偶像

高清币
2
金钱
1226
鲜花
0
在线时间
252 小时
最后登录
2019-7-16
发表于 2019-5-16 12:50:59 | 显示全部楼层

这个帖子不回对不起自己!我想我是一天也不能离开中国高清论坛
回复 支持 反对

使用道具 举报

知名艺人

高清币
4
金钱
524
鲜花
0
在线时间
84 小时
最后登录
2019-7-20
发表于 2019-5-16 12:52:47 | 显示全部楼层

楼主太厉害了!楼主,电影应该很好看我觉得中国高清论坛真是个好地方!
回复 支持 反对

使用道具 举报

人气偶像

高清币
2
金钱
1226
鲜花
0
在线时间
252 小时
最后登录
2019-7-16
发表于 2019-5-16 12:56:23 | 显示全部楼层

这个帖子不回对不起自己!我想我是一天也不能离开中国高清论坛
回复 支持 反对

使用道具 举报

影坛巨星

高清币
1870
金钱
10178
鲜花
0
在线时间
5835 小时
最后登录
2019-7-21
发表于 2019-5-16 12:58:06 | 显示全部楼层

感谢楼主的无私分享!要想中国高清论坛好 就靠你我他
回复 支持 反对

使用道具 举报

superstar

高清币
1957
金钱
11355
鲜花
0
在线时间
2640 小时
最后登录
2019-7-21
发表于 2019-5-16 13:03:49 | 显示全部楼层
多謝樓主的分享。
回复 支持 反对

使用道具 举报

superstar

高清币
3349
金钱
11792
鲜花
0
在线时间
3663 小时
最后登录
2019-7-22
发表于 2019-5-16 13:05:25 | 显示全部楼层

楼主,大恩不言谢了!中国高清论坛是最棒的!
回复 支持 反对

使用道具 举报

懒得打字嘛,点击右侧快捷回复 【右侧内容,后台自定义】
您需要登录后才可以回帖 登录 | 立即注册

本版积分规则

QQ|手机版|小黑屋|中国高清论坛 ( 黔ICP备16007815号-1 )

GMT+8, 2019-7-22 07:07 , Processed in 0.056962 second(s), 25 queries .

Powered by Discuz! X3.4

© 2001-2017 Comsenz Inc.

快速回复 返回顶部 返回列表