请选择 进入手机版 | 继续访问电脑版

中国高清论坛

 找回密码
 立即注册
搜索
查看: 826|回复: 175

[犯罪片] 导火新闻线 The.Menu.2016.CHINESE.1080p.BluRay.x264.DTS-PbK 11.05 GiB

  [复制链接]

超级版主

高清币
15781
金钱
36783
鲜花
-88
在线时间
11540 小时
最后登录
2019-5-22
发表于 6 天前 | 显示全部楼层 |阅读模式


◎译  名 导火新闻线
◎片  名 The Menu/Dou foh sun man sin
◎年  代 2018
◎产  地 中国香港
◎类  别 犯罪/剧情
◎语  言 普通话
◎IMDb评分 6.2/10 from 140 userss
◎IMDB链接 https://www.imdb.com/title/tt6090588/
◎片  长 1 h 50 min
◎导  演 方俊华 Junhua Fang
◎主  演 吴孟达 Man Tat Ng
       周家怡 Catherine Chau
       杨淇 Kate Yeung
       何佩瑜 Jeana Ho


◎简  介


  影片讲述囧报及闪报为了点击率的媒体斗争,却无意陷入了寻仇者闯入电视台用炸弹挟持人质,向政府高层请愿通过恢复二次申诉,作为媒体正邪两方是如何站在各自立场斗智斗勇,事态不断升级揭露出官商勾结等隐情,人质与寻仇者命悬一线......
  1. Video
  2. ID : 1
  3. Format : AVC
  4. Format/Info : Advanced Video Codec
  5. Format profile : High@L4.1
  6. Format settings : CABAC / 5 Ref Frames
  7. Format settings, CABAC : Yes
  8. Format settings, ReFrames : 5 frames
  9. Codec ID : V_MPEG4/ISO/AVC
  10. Duration : 1 h 29 min
  11. Bit rate : 16.1 Mb/s
  12. Width : 1 920 pixels
  13. Height : 804 pixels
  14. Display aspect ratio : 2.40:1
  15. Frame rate mode : Constant
  16. Frame rate : 24.000 FPS
  17. Color space : YUV
  18. Chroma subsampling : 4:2:0
  19. Bit depth : 8 bits
  20. Scan type : Progressive
  21. Bits/(Pixel*Frame) : 0.435
  22. Stream size : 10.1 GiB (91%)
  23. Title : The.Menu.2016.CHINESE.1080p.BluRay.x264.DTS-PbK
  24. Writing library : x264 core 148 r2721kMod 72d53ab
  25. Encoding settings : cabac=1 / ref=5 / deblock=1:-3:-3 / analyse=0x3:0x133 / me=umh / subme=11 / psy=1 / fade_compensate=0.00 / psy_rd=1.00:0.10 / mixed_ref=1 / me_range=44 / chroma_me=1 / trellis=2 / 8x8dct=1 / cqm=0 / deadzone=21,11 / fast_pskip=0 / chroma_qp_offset=-5 / threads=16 / lookahead_threads=4 / sliced_threads=0 / nr=0 / decimate=1 / interlaced=0 / bluray_compat=0 / constrained_intra=0 / fgo=0 / bframes=10 / b_pyramid=2 / b_adapt=2 / b_bias=0 / direct=3 / weightb=1 / open_gop=0 / weightp=2 / keyint=360 / keyint_min=24 / scenecut=40 / intra_refresh=0 / rc_lookahead=60 / rc=crf / mbtree=0 / crf=17.5000 / qcomp=0.70 / qpmin=0 / qpmax=69 / qpstep=4 / vbv_maxrate=40000 / vbv_bufsize=30000 / crf_max=0.0 / nal_hrd=none / filler=0 / ip_ratio=1.40 / pb_ratio=1.30 / aq=3:0.90
  26. Language : Chinese
  27. Default : Yes
  28. Forced : No

  29. Audio
  30. ID : 2
  31. Format : DTS
  32. Format/Info : Digital Theater Systems
  33. Codec ID : A_DTS
  34. Duration : 1 h 29 min
  35. Bit rate mode : Constant
  36. Bit rate : 1 509 kb/s
  37. Channel(s) : 6 channels
  38. Channel layout : C L R Ls Rs LFE
  39. Sampling rate : 48.0 kHz
  40. Frame rate : 93.750 FPS (512 SPF)
  41. Bit depth : 16 bits
  42. Compression mode : Lossy
  43. Stream size : 968 MiB (9%)
  44. Title : The.Menu.2016.CHINESE.1080p.BluRay.x264.DTS-PbK
  45. Language : Chinese
  46. Default : Yes
  47. Forced : No

  48. Text
  49. ID : 3
  50. Format : UTF-8
  51. Codec ID : S_TEXT/UTF8
  52. Codec ID/Info : UTF-8 Plain Text
  53. Duration : 1 h 28 min
  54. Bit rate : 62 b/s
  55. Count of elements : 1313
  56. Stream size : 40.3 KiB (0%)
  57. Language : English
  58. Default : Yes
  59. Forced : Yes

  60. Menu
  61. 00:00:00.000 : en:Chapter 01
  62. 00:06:56.041 : en:Chapter 02
  63. 00:16:33.500 : en:Chapter 03
  64. 00:23:26.750 : en:Chapter 04
  65. 00:29:42.750 : en:Chapter 05
  66. 00:37:54.458 : en:Chapter 06
  67. 00:43:01.833 : en:Chapter 07
  68. 00:53:26.625 : en:Chapter 08
  69. 01:01:17.208 : en:Chapter 09
  70. 01:08:04.916 : en:Chapter 10
  71. 01:14:45.166 : en:Chapter 11
  72. 01:20:42.500 : en:Chapter 12
  73. 01:29:42.208 : en:Chapter 13
复制代码








游客,如果您要查看本帖隐藏内容请回复
回复

使用道具 举报

超级明星

高清币
1650
金钱
5211
鲜花
0
在线时间
1388 小时
最后登录
2019-5-22
发表于 6 天前 | 显示全部楼层

我看不错噢 谢谢楼主!中国高清论坛越来越好!
回复 支持 反对

使用道具 举报

影坛巨星

高清币
2676
金钱
9338
鲜花
0
在线时间
2183 小时
最后登录
2019-5-22
发表于 6 天前 | 显示全部楼层
楼主发贴辛苦了,谢谢楼主分享!我觉得中国高清论坛是注册对了!
回复 支持 反对

使用道具 举报

永恒神话

高清币
37742
金钱
74548
鲜花
0
在线时间
6326 小时
最后登录
2019-5-22
发表于 6 天前 | 显示全部楼层

这个帖子不回对不起自己!我想我是一天也不能离开中国高清论坛
回复 支持 反对

使用道具 举报

金鸡奖主角

高清币
119
金钱
4735
鲜花
0
在线时间
644 小时
最后登录
2019-5-22
发表于 6 天前 | 显示全部楼层

楼主太厉害了!楼主,电影应该很好看我觉得中国高清论坛真是个好地方!
回复 支持 反对

使用道具 举报

超级明星

高清币
2
金钱
8508
鲜花
0
在线时间
3972 小时
最后登录
2019-5-22
发表于 6 天前 | 显示全部楼层

这个帖子不回对不起自己!我想我是一天也不能离开中国高清论坛
回复 支持 反对

使用道具 举报

人气偶像

高清币
2
金钱
1762
鲜花
0
在线时间
460 小时
最后登录
2019-5-21
发表于 6 天前 | 显示全部楼层
我想我是一天也不能离开中国高清论坛。
回复 支持 反对

使用道具 举报

超级明星

高清币
1414
金钱
6399
鲜花
0
在线时间
987 小时
最后登录
2019-5-20
发表于 6 天前 | 显示全部楼层

这个帖子不回对不起自己!我想我是一天也不能离开中国高清论坛
回复 支持 反对

使用道具 举报

人气偶像

高清币
109
金钱
1493
鲜花
0
在线时间
281 小时
最后登录
2019-5-22
发表于 6 天前 | 显示全部楼层

这东西我收了!谢谢楼主!中国高清论坛真好!
回复 支持 反对

使用道具 举报

金鸡奖主角

高清币
230
金钱
5358
鲜花
0
在线时间
1196 小时
最后登录
2019-5-21
发表于 6 天前 | 显示全部楼层
楼主发贴辛苦了,谢谢楼主分享!我觉得中国高清论坛是注册对了!
回复 支持 反对

使用道具 举报

懒得打字嘛,点击右侧快捷回复 【右侧内容,后台自定义】
您需要登录后才可以回帖 登录 | 立即注册

本版积分规则

QQ|手机版|小黑屋|中国高清论坛 ( 黔ICP备16007815号-1 )

GMT+8, 2019-5-22 13:34 , Processed in 0.058398 second(s), 29 queries .

Powered by Discuz! X3.4

© 2001-2017 Comsenz Inc.

快速回复 返回顶部 返回列表