请选择 进入手机版 | 继续访问电脑版

中国高清论坛

 找回密码
 立即注册
搜索
查看: 249|回复: 52

[动作片] 追逐野马 Chasing.Bullitt.2018.1080p.WEB-DL.DD5.1.H264-FGT 3.13GB

[复制链接]

退役版主

高清币
5168
金钱
1725
鲜花
102
在线时间
485 小时
最后登录
2019-5-16
发表于 2019-5-16 19:21:56 | 显示全部楼层 |阅读模式
a603437fe6a036e657f318511c3624affc7c6ce1.jpg
[center][/center]

◎译  名 追逐野马 / GT 390
◎片  名 Chasing Bullitt
◎年  代 2018
◎产  地 美国
◎类  别 剧情
◎语  言 英语
◎上映日期 2018-06-08(Dances With Films Festival)
◎IMDb评分  7.4/10 from 14 users
◎IMDb链接  http://www.imdb.com/title/tt6692926
◎豆瓣评分 0/10 from 0 users
◎豆瓣链接 https://movie.douban.com/subject/30286119/
◎导  演 Joe Eddy
◎编  剧 Joe Eddy
◎主  演 Augie Duke
      Jan Broberg
      Chantz Simpson


◎简  介  

  A Hollywood icon searches for the elusive GT 390.

  1. Video
  2. ID                                       : 1
  3. Format                                   : AVC
  4. Format/Info                              : Advanced Video Codec
  5. Format profile                           : High@L4
  6. Format settings                          : CABAC / 5 Ref Frames
  7. Format settings, CABAC                   : Yes
  8. Format settings, ReFrames                : 5 frames
  9. Codec ID                                 : V_MPEG4/ISO/AVC
  10. Duration                                 : 1 h 30 min
  11. Bit rate                                 : 4 594 kb/s
  12. Width                                    : 1 914 pixels
  13. Height                                   : 796 pixels
  14. Display aspect ratio                     : 2.40:1
  15. Frame rate mode                          : Constant
  16. Frame rate                               : 23.976 FPS
  17. Color space                              : YUV
  18. Chroma subsampling                       : 4:2:0
  19. Bit depth                                : 8 bits
  20. Scan type                                : Progressive
  21. Bits/(Pixel*Frame)                       : 0.126
  22. Stream size                              : 2.89 GiB (92%)
  23. Title                                    : Chasing.Bullitt.2018.1080p.WEB-DL.DD5.1.H264-FGT
  24. Language                                 : English
  25. Default                                  : Yes
  26. Forced                                   : No
  27. Color range                              : Limited
  28. Color primaries                          : BT.709
  29. Transfer characteristics                 : BT.709
  30. Matrix coefficients                      : BT.709

  31. Audio
  32. ID                                       : 2
  33. Format                                   : AC-3
  34. Format/Info                              : Audio Coding 3
  35. Commercial name                          : Dolby Digital
  36. Codec ID                                 : A_AC3
  37. Duration                                 : 1 h 30 min
  38. Bit rate mode                            : Constant
  39. Bit rate                                 : 384 kb/s
  40. Channel(s)                               : 6 channels
  41. Channel layout                           : L R C LFE Ls Rs
  42. Sampling rate                            : 48.0 kHz
  43. Frame rate                               : 31.250 FPS (1536 SPF)
  44. Bit depth                                : 16 bits
  45. Compression mode                         : Lossy
  46. Stream size                              : 247 MiB (8%)
  47. Title                                    : Chasing.Bullitt.2018.1080p.WEB-DL.DD5.1.H264-FGT
  48. Language                                 : English
  49. Service kind                             : Complete Main
  50. Default                                  : Yes
  51. Forced                                   : No

  52. Text
  53. ID                                       : 3
  54. Format                                   : UTF-8
  55. Codec ID                                 : S_TEXT/UTF8
  56. Codec ID/Info                            : UTF-8 Plain Text
  57. Duration                                 : 1 h 29 min
  58. Bit rate                                 : 84 b/s
  59. Count of elements                        : 1543
  60. Stream size                              : 55.2 KiB (0%)
  61. Language                                 : English
  62. Default                                  : Yes
  63. Forced                                   : No

  64. Menu
  65. 00:00:00.000                             : en:1
  66. 00:06:45.000                             : en:2
  67. 00:11:49.000                             : en:3
  68. 00:16:30.000                             : en:4
  69. 00:20:38.000                             : en:5
  70. 00:29:02.000                             : en:6
  71. 00:33:53.000                             : en:7
  72. 00:41:50.000                             : en:8
  73. 00:46:37.000                             : en:9
  74. 00:53:08.000                             : en:10
  75. 00:58:30.000                             : en:11
  76. 01:04:15.000                             : en:12
  77. 01:09:09.000                             : en:13
  78. 01:14:07.000                             : en:14
  79. 01:18:41.000                             : en:15
  80. 01:25:32.000                             : en:16
复制代码

04937868344559508797_thumb.png 37699652507503075502_thumb.png 47595154201497534864_thumb.png

Chasing.Bullitt.2018.1080p.WEB-DL.DD5.1.H264-FGT.torrent (31.84 KB, 下载次数: 8)
回复

使用道具 举报

金鸡奖主角

高清币
1675
金钱
3151
鲜花
0
在线时间
648 小时
最后登录
2019-5-24
发表于 2019-5-16 19:36:06 | 显示全部楼层

楼主太厉害了!楼主,电影应该很好看我觉得中国高清论坛真是个好地方!
回复 支持 反对

使用道具 举报

永恒神话

高清币
9808
金钱
14954
鲜花
0
在线时间
915 小时
最后登录
2019-5-24
发表于 2019-5-16 19:41:52 | 显示全部楼层
楼主发贴辛苦了,谢谢楼主分享!我觉得中国高清论坛是注册对了!
回复 支持 反对

使用道具 举报

影坛巨星

高清币
460
金钱
9483
鲜花
0
在线时间
3726 小时
最后登录
2019-5-17
发表于 2019-5-16 19:45:23 | 显示全部楼层

楼主太厉害了!楼主,电影应该很好看我觉得中国高清论坛真是个好地方!
回复 支持 反对

使用道具 举报

superstar

高清币
5513
金钱
10176
鲜花
0
在线时间
1367 小时
最后登录
2019-5-20
发表于 2019-5-16 19:45:56 | 显示全部楼层

这个帖子不回对不起自己!我想我是一天也不能离开中国高清论坛
回复 支持 反对

使用道具 举报

超级明星

高清币
57
金钱
7476
鲜花
0
在线时间
2433 小时
最后登录
2019-5-23
发表于 2019-5-16 19:48:18 | 显示全部楼层

楼主太厉害了!楼主,电影应该很好看我觉得中国高清论坛真是个好地方!
回复 支持 反对

使用道具 举报

永恒神话

高清币
9520
金钱
11773
鲜花
0
在线时间
653 小时
最后登录
2019-5-23
发表于 2019-5-16 19:59:33 | 显示全部楼层

楼主太厉害了!楼主,电影应该很好看我觉得中国高清论坛真是个好地方!
回复 支持 反对

使用道具 举报

金鸡奖主角

高清币
967
金钱
4683
鲜花
0
在线时间
631 小时
最后登录
2019-5-20
发表于 2019-5-16 20:08:04 | 显示全部楼层

这东西我收了!谢谢楼主!中国高清论坛真好!
回复 支持 反对

使用道具 举报

永恒神话

高清币
17181
金钱
29957
鲜花
0
在线时间
2222 小时
最后登录
2019-5-23
发表于 2019-5-16 20:09:44 | 显示全部楼层
谢谢发片,辛苦了

回复 支持 反对

使用道具 举报

superstar

高清币
1842
金钱
10998
鲜花
0
在线时间
2540 小时
最后登录
2019-5-24
发表于 2019-5-16 20:12:19 | 显示全部楼层
多謝樓主的分享。
回复 支持 反对

使用道具 举报

懒得打字嘛,点击右侧快捷回复 【右侧内容,后台自定义】
您需要登录后才可以回帖 登录 | 立即注册

本版积分规则

QQ|手机版|小黑屋|85楼娱乐社区 ( 黔ICP备16007815号-1 )

GMT+8, 2019-5-24 11:03 , Processed in 0.060342 second(s), 29 queries .

Powered by Discuz! X3.4

© 2001-2017 Comsenz Inc.

快速回复 返回顶部 返回列表