请选择 进入手机版 | 继续访问电脑版

中国高清论坛

 找回密码
 立即注册
搜索
查看: 614|回复: 87

[喜剧片] 倾听男人心 What.Men.Want.2019.BDRip.1080p.seleZen 15.02 GiB

  [复制链接]

超级版主

高清币
16375
金钱
38085
鲜花
0
在线时间
11818 小时
最后登录
2019-7-21
发表于 2019-5-16 20:08:16 | 显示全部楼层 |阅读模式


◎译  名 倾听男人心
◎片  名 What Men Want
◎年  代 2019
◎国  家 美国
◎类  别 喜剧/爱情/奇幻
◎语  言 英语
◎IMDb评分 4.6/10 from 5,084 users
◎IMDb链接 https://www.imdb.com/title/tt7634968/
◎片  长 1 h 57 min
◎导  演 亚当·山克曼 Adam Shankman
◎主  演 塔拉吉·P·汉森 Taraji P. Henson
       克莉丝汀·莱德洛 Kristen Ledlow
       戴安·琳恩 Diane Lane
       杰森·克拉克 Jason Clarke




◎简  介


  该片是“性转”梅尔·吉布森主演的2000年热卖喜剧《偷听女人心》。原版讲述一位大男子主义者意外获得能力,能听到女人的心声,从而在生活和工作上获益,最终赢得心上人芳心。新版主角则是一位女性体育经纪人,由于性别上的劣势,她在工作上屡屡被男同事挫败。结果她意外获得倾听男人心声的能力,也因此在事业上一帆风顺,甚至有机会签下NBA的明日巨星。

  1. General
  2. Unique ID : 214050322900652391861534221991313530519 (0xA10897B7C7B703591CFB96D14525DE97)
  3. Complete name : D:Video111What.Men.Want.2019.BDRip.1080p.seleZen.mkv
  4. Format : Matroska
  5. Format version : Version 4
  6. File size : 15.0 GiB
  7. Duration : 1 h 57 min
  8. Overall bit rate : 18.4 Mb/s
  9. Movie name : What Men Want 2019 from селезень
  10. Encoded date : UTC 2019-05-16 07:46:35
  11. Writing application : mkvmerge v33.1.0 ('Primrose') 64-bit
  12. Writing library : libebml v1.3.7 + libmatroska v1.5.0

  13. Video
  14. ID : 1
  15. Format : AVC
  16. Format/Info : Advanced Video Codec
  17. Format profile : High@L4.1
  18. Format settings : CABAC / 5 Ref Frames
  19. Format settings, CABAC : Yes
  20. Format settings, Reference : 5 frames
  21. Codec ID : V_MPEG4/ISO/AVC
  22. Duration : 1 h 57 min
  23. Bit rate : 16.5 Mb/s
  24. Width : 1 920 pixels
  25. Height : 804 pixels
  26. Display aspect ratio : 2.40:1
  27. Frame rate mode : Constant
  28. Frame rate : 23.976 (24000/1001) FPS
  29. Color space : YUV
  30. Chroma subsampling : 4:2:0
  31. Bit depth : 8 bits
  32. Scan type : Progressive
  33. Bits/(Pixel*Frame) : 0.445
  34. Stream size : 13.5 GiB (90%)
  35. Title : GALVANiZE
  36. Writing library : x264 core 157 r2867+103 0d6443f t_mod_Custom_2 [8-bit@all X86]
  37. Encoding settings : cabac=1 / ref=5 / deblock=1:-3:-3 / analyse=0x3:0x133 / me=umh / subme=11 / psy=1 / fade_compensate=0.00 / psy_rd=1.05:0.00 / mixed_ref=1 / me_range=32 / chroma_me=1 / trellis=2 / 8x8dct=1 / cqm=0 / deadzone=21,11 / fast_pskip=0 / chroma_qp_offset=-2 / threads=18 / lookahead_threads=3 / sliced_threads=0 / nr=0 / decimate=1 / interlaced=0 / bluray_compat=0 / constrained_intra=0 / fgo=0 / bframes=9 / b_pyramid=2 / b_adapt=2 / b_bias=0 / direct=3 / weightb=1 / open_gop=0 / weightp=2 / keyint=250 / keyint_min=24 / scenecut=40 / intra_refresh=0 / rc_lookahead=60 / rc=crf / mbtree=0 / crf=15.0000 / qcomp=0.60 / qpmin=0:0:0 / qpmax=69:69:69 / qpstep=4 / vbv_maxrate=62500 / vbv_bufsize=78125 / crf_max=0.0 / nal_hrd=none / filler=0 / ip_ratio=1.40 / pb_ratio=1.30 / aq=3:0.80 / aq-sensitivity=10.00 / aq-factor=1.00:1.00:1.00 / aq2=0 / aq3=0 / zones=7616,7635,crf=13.6/8072,8089,crf=13.6/18662,21000,crf=13.8/22385,24462,crf=13.8/31746,40616,crf=13.8/41308,44539,crf=13.8
  38. Language : English
  39. Default : Yes
  40. Forced : No
  41. Color range : Limited
  42. Color primaries : BT.709
  43. Matrix coefficients : BT.709

  44. Audio #1
  45. ID : 2
  46. Format : AC-3
  47. Format/Info : Audio Coding 3
  48. Commercial name : Dolby Digital
  49. Codec ID : A_AC3
  50. Duration : 1 h 57 min
  51. Bit rate mode : Constant
  52. Bit rate : 384 kb/s
  53. Channel(s) : 6 channels
  54. Channel layout : L R C LFE Ls Rs
  55. Sampling rate : 48.0 kHz
  56. Frame rate : 31.250 FPS (1536 SPF)
  57. Bit depth : 16 bits
  58. Compression mode : Lossy
  59. Stream size : 322 MiB (2%)
  60. Title : Dub [itunes]
  61. Language : Russian
  62. Service kind : Complete Main
  63. Default : Yes
  64. Forced : Yes

  65. Audio #2
  66. ID : 3
  67. Format : DTS
  68. Format/Info : Digital Theater Systems
  69. Codec ID : A_DTS
  70. Duration : 1 h 57 min
  71. Bit rate mode : Constant
  72. Bit rate : 1 510 kb/s
  73. Channel(s) : 6 channels
  74. Channel layout : C L R Ls Rs LFE
  75. Sampling rate : 48.0 kHz
  76. Frame rate : 93.750 FPS (512 SPF)
  77. Bit depth : 24 bits
  78. Compression mode : Lossy
  79. Stream size : 1.23 GiB (8%)
  80. Title : Original
  81. Language : English
  82. Default : No
  83. Forced : No

  84. Text #1
  85. ID : 4
  86. Format : UTF-8
  87. Codec ID : S_TEXT/UTF8
  88. Codec ID/Info : UTF-8 Plain Text
  89. Duration : 52 min 28 s
  90. Bit rate : 3 b/s
  91. Count of elements : 20
  92. Stream size : 1.25 KiB (0%)
  93. Title : Forced
  94. Language : Russian
  95. Default : Yes
  96. Forced : Yes

  97. Text #2
  98. ID : 5
  99. Format : UTF-8
  100. Codec ID : S_TEXT/UTF8
  101. Codec ID/Info : UTF-8 Plain Text
  102. Duration : 1 h 56 min
  103. Bit rate : 137 b/s
  104. Count of elements : 2147
  105. Stream size : 117 KiB (0%)
  106. Title : Full
  107. Language : Russian
  108. Default : No
  109. Forced : No

  110. Text #3
  111. ID : 6
  112. Format : UTF-8
  113. Codec ID : S_TEXT/UTF8
  114. Codec ID/Info : UTF-8 Plain Text
  115. Duration : 1 h 52 min
  116. Bit rate : 96 b/s
  117. Count of elements : 2267
  118. Stream size : 79.3 KiB (0%)
  119. Title : Full
  120. Language : English
  121. Default : No
  122. Forced : No

  123. Text #4
  124. ID : 7
  125. Format : UTF-8
  126. Codec ID : S_TEXT/UTF8
  127. Codec ID/Info : UTF-8 Plain Text
  128. Duration : 1 h 52 min
  129. Bit rate : 104 b/s
  130. Count of elements : 2404
  131. Stream size : 86.0 KiB (0%)
  132. Title : SDH
  133. Language : English
  134. Default : No
  135. Forced : No

  136. Menu
  137. 00:00:00.000 : en:Chapter 1
  138. 00:11:26.519 : en:Chapter 2
  139. 00:22:01.903 : en:Chapter 3
  140. 00:31:02.443 : en:Chapter 4
  141. 00:43:07.668 : en:Chapter 5
  142. 00:51:37.969 : en:Chapter 6
  143. 01:01:19.842 : en:Chapter 7
  144. 01:10:45.616 : en:Chapter 8
  145. 01:18:53.395 : en:Chapter 9
  146. 01:28:42.900 : en:Chapter 10
  147. 01:38:51.842 : en:Chapter 11
  148. 01:47:41.663 : en:Chapter 12
复制代码

游客,如果您要查看本帖隐藏内容请回复,您还可以免扣高清币免回复下载:https://www.85lou.com/plugin.php?id=threed_vip
回复

使用道具 举报

永恒神话

高清币
10971
金钱
34826
鲜花
10
在线时间
2327 小时
最后登录
2019-7-22
发表于 2019-5-16 23:51:42 | 显示全部楼层

这个帖子不回对不起自己!我想我是一天也不能离开中国高清论坛
回复 支持 1 反对 0

使用道具 举报

永恒神话

高清币
9341
金钱
12768
鲜花
0
在线时间
1229 小时
最后登录
2019-7-18
发表于 2019-5-17 00:02:49 | 显示全部楼层

这东西我收了!谢谢楼主!中国高清论坛真好!
回复 支持 1 反对 0

使用道具 举报

永恒神话

高清币
10971
金钱
34826
鲜花
10
在线时间
2327 小时
最后登录
2019-7-22
发表于 2019-5-17 00:05:25 | 显示全部楼层

既然你诚信诚意的推荐了,那我就勉为其难的看看吧!中国高清论坛不走平凡路。
回复 支持 1 反对 0

使用道具 举报

永恒神话

高清币
17845
金钱
31043
鲜花
0
在线时间
2346 小时
最后登录
2019-7-21
发表于 2019-5-16 20:10:09 | 显示全部楼层
谢谢发片,辛苦了

回复 支持 反对

使用道具 举报

VIP贵宾

高清币
5
金钱
184
鲜花
0
在线时间
122 小时
最后登录
2019-7-21
发表于 2019-5-16 20:17:15 | 显示全部楼层
谢谢分享谢谢分享
回复 支持 反对

使用道具 举报

金鸡奖主角

高清币
0
金钱
4677
鲜花
0
在线时间
873 小时
最后登录
2019-7-21
发表于 2019-5-16 20:18:59 | 显示全部楼层
楼主发贴辛苦了,谢谢楼主分享!我觉得中国高清论坛是注册对了!
回复 支持 反对

使用道具 举报

天王巨星

高清币
820
金钱
1216
鲜花
0
在线时间
155 小时
最后登录
2019-7-18
发表于 2019-5-16 20:20:38 | 显示全部楼层
楼主发贴辛苦了,谢谢楼主分享!我觉得中国高清论坛是注册对了!
回复 支持 反对

使用道具 举报

永恒神话

高清币
10308
金钱
15774
鲜花
0
在线时间
1007 小时
最后登录
2019-7-21
发表于 2019-5-16 20:25:07 | 显示全部楼层
楼主发贴辛苦了,谢谢楼主分享!我觉得中国高清论坛是注册对了!
回复 支持 反对

使用道具 举报

影坛巨星

高清币
5
金钱
10058
鲜花
0
在线时间
1615 小时
最后登录
2019-7-17
发表于 2019-5-16 20:28:49 | 显示全部楼层

楼主太厉害了!楼主,电影应该很好看我觉得中国高清论坛真是个好地方!
回复 支持 反对

使用道具 举报

人气偶像

高清币
33
金钱
1487
鲜花
0
在线时间
230 小时
最后登录
2019-7-21
发表于 2019-5-16 20:32:41 | 显示全部楼层
谢谢楼主分享谢谢
回复 支持 反对

使用道具 举报

金鸡奖主角

高清币
620
金钱
2466
鲜花
0
在线时间
249 小时
最后登录
2019-7-11
发表于 2019-5-16 20:33:52 | 显示全部楼层

楼主太厉害了!楼主,电影应该很好看我觉得中国高清论坛真是个好地方!
回复 支持 反对

使用道具 举报

人气偶像

高清币
79
金钱
1487
鲜花
0
在线时间
282 小时
最后登录
2019-7-20
发表于 2019-5-16 20:49:05 | 显示全部楼层
感谢分享,万分感谢
回复 支持 反对

使用道具 举报

懒得打字嘛,点击右侧快捷回复 【右侧内容,后台自定义】
您需要登录后才可以回帖 登录 | 立即注册

本版积分规则

QQ|手机版|小黑屋|中国高清论坛 ( 黔ICP备16007815号-1 )

GMT+8, 2019-7-22 07:12 , Processed in 0.074017 second(s), 26 queries .

Powered by Discuz! X3.4

© 2001-2017 Comsenz Inc.

快速回复 返回顶部 返回列表