请选择 进入手机版 | 继续访问电脑版

中国高清论坛

 找回密码
 立即注册
搜索
查看: 837|回复: 137

[惊悚片] 女族长 Matriarch.2018.BDRip.1080p-Unknown 6.68 GiB

  [复制链接]

超级版主

高清币
15781
金钱
36783
鲜花
-88
在线时间
11540 小时
最后登录
2019-5-22
发表于 6 天前 | 显示全部楼层 |阅读模式


◎译  名 女族长
◎片  名 Matriarch
◎年  代 2019
◎国  家 美国
◎类  别 惊悚/恐怖
◎语  言 英语
◎IMDb评分 5.8/10 from 1,415 users
◎IMDb链接 https://www.imdb.com/title/tt6301452/
◎片  长 1 h 57 min
◎导  演 斯科特·维克斯 Scott Ryan Vickers
◎主  演 查莉·布莱克伍德 Charlie Blackwood
       朱莉·汉南 Julie Hannan
       斯科特·维克斯 Scott Ryan Vickers
       艾伦·库斯伯特 Alan Cuthbert




◎简  介

  An expecting Mother (Rachel) and husband (Matt) crash their car in the countryside and are offered shelter by a farmer and his wife. Rachel soon realizes the farmer's children are in fact stolen. Just as they try to escape from the farm Rachel goes into labor.....

  1. General
  2. Unique ID : 163255927681882129831537792650570741636 (0x7AD1F2AE4D1C0C2CF1D4E7902251B784)
  3. Complete name : G:\Matriarch.2018.BDRip.1080p.mkv
  4. Format : Matroska
  5. Format version : Version 4 / Version 2
  6. File size : 6.68 GiB
  7. Duration : 1 h 31 min
  8. Overall bit rate : 10.4 Mb/s
  9. Encoded date : UTC 2019-05-16 05:14:57
  10. Writing application : mkvmerge v20.0.0 ('I Am The Sun') 64-bit
  11. Writing library : libebml v1.3.5 + libmatroska v1.4.8

  12. Video
  13. ID : 1
  14. Format : AVC
  15. Format/Info : Advanced Video Codec
  16. Format profile : High@L4.1
  17. Format settings : CABAC / 4 Ref Frames
  18. Format settings, CABAC : Yes
  19. Format settings, RefFrames : 4 frames
  20. Codec ID : V_MPEG4/ISO/AVC
  21. Duration : 1 h 31 min
  22. Bit rate : 8 741 kb/s
  23. Width : 1 920 pixels
  24. Height : 1 080 pixels
  25. Display aspect ratio : 16:9
  26. Frame rate mode : Constant
  27. Frame rate : 23.976 (24000/1001) FPS
  28. Color space : YUV
  29. Chroma subsampling : 4:2:0
  30. Bit depth : 8 bits
  31. Scan type : Progressive
  32. Bits/(Pixel*Frame) : 0.176
  33. Stream size : 5.59 GiB (84%)
  34. Writing library : x264 core 157 r2969 d4099dd
  35. Encoding settings : cabac=1 / ref=4 / deblock=1:0:0 / analyse=0x3:0x113 / me=umh / subme=8 / psy=1 / psy_rd=1.00:0.00 / mixed_ref=1 / me_range=16 / chroma_me=1 / trellis=2 / 8x8dct=1 / cqm=0 / deadzone=21,11 / fast_pskip=0 / chroma_qp_offset=-2 / threads=34 / lookahead_threads=5 / sliced_threads=0 / nr=0 / decimate=1 / interlaced=0 / bluray_compat=0 / constrained_intra=0 / bframes=3 / b_pyramid=2 / b_adapt=1 / b_bias=0 / direct=3 / weightb=1 / open_gop=0 / weightp=2 / keyint=250 / keyint_min=23 / scenecut=40 / intra_refresh=0 / rc_lookahead=50 / rc=2pass / mbtree=1 / bitrate=8741 / ratetol=1.0 / qcomp=0.60 / qpmin=0 / qpmax=69 / qpstep=4 / cplxblur=20.0 / qblur=0.5 / ip_ratio=1.40 / aq=1:1.00
  36. Language : English
  37. Default : Yes
  38. Forced : No

  39. Audio #1
  40. ID : 2
  41. Format : AC-3
  42. Format/Info : Audio Coding 3
  43. Codec ID : A_AC3
  44. Duration : 1 h 31 min
  45. Bit rate mode : Constant
  46. Bit rate : 192 kb/s
  47. Channel(s) : 2 channels
  48. Channel positions : Front: L R
  49. Sampling rate : 48.0 kHz
  50. Frame rate : 31.250 FPS (1536 SPF)
  51. Bit depth : 16 bits
  52. Compression mode : Lossy
  53. Stream size : 126 MiB (2%)
  54. Title : MVO HDrezka Studio
  55. Language : Russian
  56. Service kind : Complete Main
  57. Default : Yes
  58. Forced : No

  59. Audio #2
  60. ID : 3
  61. Format : DTS
  62. Format/Info : Digital Theater Systems
  63. Codec ID : A_DTS
  64. Duration : 1 h 31 min
  65. Bit rate mode : Constant
  66. Bit rate : 1 509 kb/s
  67. Channel(s) : 6 channels
  68. Channel positions : Front: L C R, Side: L R, LFE
  69. Sampling rate : 48.0 kHz
  70. Frame rate : 93.750 FPS (512 SPF)
  71. Bit depth : 24 bits
  72. Compression mode : Lossy
  73. Stream size : 988 MiB (14%)
  74. Language : English
  75. Default : No
  76. Forced : No

  77. Text
  78. ID : 4
  79. Format : UTF-8
  80. Codec ID : S_TEXT/UTF8
  81. Codec ID/Info : UTF-8 Plain Text
  82. Duration : 1 h 28 min
  83. Bit rate : 31 b/s
  84. Count of elements : 725
  85. Stream size : 20.4 KiB (0%)
  86. Language : English
  87. Default : No
  88. Forced : No

  89. Menu
  90. 00:00:00.000 : en:Chapter 01
  91. 00:11:33.776 : en:Chapter 02
  92. 00:26:28.837 : en:Chapter 03
  93. 00:34:30.235 : en:Chapter 04
  94. 00:48:53.639 : en:Chapter 05
  95. 01:06:23.521 : en:Chapter 06
  96. 01:20:57.394 : en:Chapter 07
  97. 01:29:04.214 : en:Chapter 08
复制代码




游客,如果您要查看本帖隐藏内容请回复
回复

使用道具 举报

超级明星

高清币
2082
金钱
6030
鲜花
0
在线时间
721 小时
最后登录
2019-5-20
发表于 6 天前 | 显示全部楼层
谢谢楼主分享!
回复 支持 1 反对 0

使用道具 举报

人气偶像

高清币
0
金钱
2178
鲜花
0
在线时间
472 小时
最后登录
2019-5-21
发表于 6 天前 | 显示全部楼层
电影应该很好看我觉得中国高清论坛真是个好地方!
回复 支持 1 反对 0

使用道具 举报

superstar

高清币
5513
金钱
10176
鲜花
0
在线时间
1367 小时
最后登录
2019-5-20
发表于 6 天前 | 显示全部楼层

楼主太厉害了!楼主,电影应该很好看我觉得中国高清论坛真是个好地方!
回复 支持 1 反对 0

使用道具 举报

超级明星

高清币
56
金钱
7467
鲜花
0
在线时间
2431 小时
最后登录
2019-5-22
发表于 6 天前 | 显示全部楼层

楼主太厉害了!楼主,电影应该很好看我觉得中国高清论坛真是个好地方!
回复 支持 反对

使用道具 举报

人气偶像

高清币
74
金钱
533
鲜花
0
在线时间
49 小时
最后登录
2019-5-22
发表于 6 天前 | 显示全部楼层
楼主发贴辛苦了,谢谢楼主分享!我觉得中国高清论坛是注册对了!
回复 支持 反对

使用道具 举报

影坛巨星

高清币
514
金钱
9737
鲜花
0
在线时间
1834 小时
最后登录
2019-5-21
发表于 6 天前 | 显示全部楼层
谢谢分享谢谢分享
楼主发贴辛苦了,谢谢楼主分享!
回复 支持 反对

使用道具 举报

superstar

高清币
459
金钱
11118
鲜花
0
在线时间
1541 小时
最后登录
2019-5-21
发表于 6 天前 | 显示全部楼层

这东西我收了!谢谢楼主!中国高清论坛真好!
回复 支持 反对

使用道具 举报

超级明星

高清币
1058
金钱
5766
鲜花
0
在线时间
843 小时
最后登录
2019-5-22
发表于 6 天前 | 显示全部楼层

楼主太厉害了!楼主,电影应该很好看我觉得中国高清论坛真是个好地方!
回复 支持 反对

使用道具 举报

金鸡奖主角

高清币
232
金钱
6721
鲜花
0
在线时间
2819 小时
最后登录
2019-5-21
发表于 6 天前 | 显示全部楼层

我看不错噢 谢谢楼主!中国高清论坛越来越好!
回复 支持 反对

使用道具 举报

好莱坞明星

高清币
1346
金钱
4887
鲜花
0
在线时间
657 小时
最后登录
2019-5-21
发表于 6 天前 | 显示全部楼层

其实我一直觉得楼主的品味不错!呵呵!中国高清论坛太棒了!
回复 支持 反对

使用道具 举报

影坛巨星

高清币
1381
金钱
9132
鲜花
0
在线时间
1028 小时
最后登录
2019-5-18
发表于 6 天前 | 显示全部楼层

这东西我收了!谢谢楼主!中国高清论坛真好!
回复 支持 反对

使用道具 举报

懒得打字嘛,点击右侧快捷回复 【右侧内容,后台自定义】
您需要登录后才可以回帖 登录 | 立即注册

本版积分规则

QQ|手机版|小黑屋|中国高清论坛 ( 黔ICP备16007815号-1 )

GMT+8, 2019-5-22 13:24 , Processed in 0.058643 second(s), 30 queries .

Powered by Discuz! X3.4

© 2001-2017 Comsenz Inc.

快速回复 返回顶部 返回列表