请选择 进入手机版 | 继续访问电脑版

中国高清论坛

 找回密码
 立即注册
搜索
查看: 506|回复: 93

[剧情片] 地狱神枪手 The.Grand.Duel.1972.REMASTERED.REPACK.720p.BluRay.x264-GHOULS 4.37GB

  [复制链接]

高清发布组

高清币
288
金钱
607
鲜花
0
在线时间
94 小时
最后登录
2019-5-23
发表于 7 天前 | 显示全部楼层 |阅读模式
poster_opt.jpg
◎译  名 地狱神枪手 / The Grand Duel
◎片  名 地狱神枪手 The Grand Duel
◎年  代 1972
◎国  家 意大利 / 西德 / 法国
◎类  别 西部
◎语  言 意大利语
◎上映日期 1972-12-29
◎IMDb评分  6.5/10 from 2,121 users
◎IMDb链接  http://www.imdb.com/title/tt0068657/
◎豆瓣评分 7.6/10 from 48 users
◎豆瓣链接 https://movie.douban.com/subject/3546783/
◎片  长 98 分钟
◎导  演 Giancarlo Santi
◎主  演 Lee Van Cleef
      Horst Frank

◎简  介 

  Il grande duello 《大决斗》李·范·克里夫拍过的无数通心粉西部片之一,除了莱昂内大师的两部,这部算不错的(导演是西部往事的副导演),娱乐性很强,配乐还是一如既往的精彩,最终大决斗节奏迟缓但极有莱昂内的大师味道。小时候凌源钢铁厂内部闭路电视上播放的录像带配音版,现在很难找到了

  1. Video
  2. ID                                       : 1
  3. Format                                   : AVC
  4. Format/Info                              : Advanced Video Codec
  5. Format profile                           : High@L4.1
  6. Format settings                          : CABAC / 12 Ref Frames
  7. Format settings, CABAC                   : Yes
  8. Format settings, ReFrames                : 12 frames
  9. Codec ID                                 : V_MPEG4/ISO/AVC
  10. Duration                                 : 1 h 33 min
  11. Bit rate                                 : 5 394 kb/s
  12. Width                                    : 1 280 pixels
  13. Height                                   : 544 pixels
  14. Display aspect ratio                     : 2.35:1
  15. Frame rate mode                          : Constant
  16. Frame rate                               : 23.976 (24000/1001) FPS
  17. Color space                              : YUV
  18. Chroma subsampling                       : 4:2:0
  19. Bit depth                                : 8 bits
  20. Scan type                                : Progressive
  21. Bits/(Pixel*Frame)                       : 0.323
  22. Stream size                              : 3.53 GiB (81%)
  23. Writing library                          : x264 core 157 r2969 d4099dd
  24. Encoding settings                        : cabac=1 / ref=12 / deblock=1:-3:-3 / analyse=0x3:0x133 / me=umh / subme=9 / psy=1 / psy_rd=1.00:0.00 / mixed_ref=1 / me_range=24 / chroma_me=1 / trellis=1 / 8x8dct=1 / cqm=0 / deadzone=21,11 / fast_pskip=0 / chroma_qp_offset=-2 / threads=17 / lookahead_threads=2 / sliced_threads=0 / nr=0 / decimate=1 / interlaced=0 / bluray_compat=0 / constrained_intra=0 / bframes=8 / b_pyramid=2 / b_adapt=2 / b_bias=0 / direct=3 / weightb=1 / open_gop=0 / weightp=2 / keyint=250 / keyint_min=23 / scenecut=40 / intra_refresh=0 / rc_lookahead=60 / rc=2pass / mbtree=1 / bitrate=5394 / ratetol=1.0 / qcomp=0.60 / qpmin=0 / qpmax=69 / qpstep=4 / cplxblur=20.0 / qblur=0.5 / vbv_maxrate=62500 / vbv_bufsize=78125 / nal_hrd=none / filler=0 / ip_ratio=1.40 / aq=1:1.00
  25. Default                                  : Yes
  26. Forced                                   : No
  27. Audio #1
  28. ID                                       : 2
  29. Format                                   : AC-3
  30. Format/Info                              : Audio Coding 3
  31. Commercial name                          : Dolby Digital
  32. Codec ID                                 : A_AC3
  33. Duration                                 : 1 h 33 min
  34. Bit rate mode                            : Constant
  35. Bit rate                                 : 640 kb/s
  36. Channel(s)                               : 1 channel
  37. Channel layout                           : C
  38. Sampling rate                            : 48.0 kHz
  39. Frame rate                               : 31.250 FPS (1536 SPF)
  40. Bit depth                                : 16 bits
  41. Compression mode                         : Lossy
  42. Stream size                              : 429 MiB (10%)
  43. Language                                 : English
  44. Service kind                             : Complete Main
  45. Default                                  : No
  46. Forced                                   : No
  47. Audio #2
  48. ID                                       : 3
  49. Format                                   : AC-3
  50. Format/Info                              : Audio Coding 3
  51. Commercial name                          : Dolby Digital
  52. Codec ID                                 : A_AC3
  53. Duration                                 : 1 h 33 min
  54. Bit rate mode                            : Constant
  55. Bit rate                                 : 640 kb/s
  56. Channel(s)                               : 1 channel
  57. Channel layout                           : C
  58. Sampling rate                            : 48.0 kHz
  59. Frame rate                               : 31.250 FPS (1536 SPF)
  60. Bit depth                                : 16 bits
  61. Compression mode                         : Lossy
  62. Stream size                              : 429 MiB (10%)
  63. Language                                 : Italian
  64. Service kind                             : Complete Main
  65. Default                                  : Yes
  66. Forced                                   : No
  67. Text
  68. ID                                       : 4
  69. Format                                   : UTF-8
  70. Codec ID                                 : S_TEXT/UTF8
  71. Codec ID/Info                            : UTF-8 Plain Text
  72. Duration                                 : 1 h 30 min
  73. Bit rate                                 : 40 b/s
  74. Count of elements                        : 833
  75. Stream size                              : 26.7 KiB (0%)
  76. Language                                 : English
  77. Default                                  : Yes
  78. Forced                                   : No
  79. Menu
  80. 00:00:00.000                             : en:Chapter 01
  81. 00:08:09.698                             : en:Chapter 02
  82. 00:15:12.537                             : en:Chapter 03
  83. 00:23:31.619                             : en:Chapter 04
  84. 00:30:29.995                             : en:Chapter 05
  85. 00:39:23.444                             : en:Chapter 06
  86. 00:47:33.100                             : en:Chapter 07
  87. 00:55:02.674                             : en:Chapter 08
  88. 01:02:26.076                             : en:Chapter 09
  89. 01:11:12.351                             : en:Chapter 10
  90. 01:19:51.745                             : en:Chapter 11
  91. 01:26:22.594                             : en:Chapter 12
复制代码

16886876373549519880_thumb.jpg

The.Grand.Duel.1972.REMASTERED.REPACK.720p.BluRay.x264-GHOULS.torrent (44.62 KB, 下载次数: 28)
回复

使用道具 举报

永恒神话

高清币
37766
金钱
74616
鲜花
0
在线时间
6326 小时
最后登录
2019-5-24
发表于 7 天前 | 显示全部楼层
楼主发贴辛苦了,谢谢楼主分享!我觉得中国高清论坛是注册对了!
回复 支持 反对

使用道具 举报

金鸡奖主角

高清币
13
金钱
3970
鲜花
0
在线时间
940 小时
最后登录
2019-5-24
发表于 7 天前 | 显示全部楼层
楼主发贴辛苦了,谢谢楼主分享!我觉得中国高清论坛是注册对了!
回复 支持 反对

使用道具 举报

永恒神话

高清币
9697
金钱
10081
鲜花
0
在线时间
565 小时
最后登录
2019-5-24
发表于 7 天前 | 显示全部楼层
这东西我收了!谢谢楼主!中国高清论坛真好!
回复 支持 反对

使用道具 举报

金鸡奖主角

高清币
363
金钱
4253
鲜花
0
在线时间
724 小时
最后登录
2019-5-24
发表于 7 天前 | 显示全部楼层
感谢楼主分享!
回复 支持 反对

使用道具 举报

超级明星

高清币
1462
金钱
6396
鲜花
0
在线时间
2063 小时
最后登录
2019-5-23
发表于 7 天前 | 显示全部楼层
楼主发贴辛苦了,谢谢楼主分享!我觉得中国高清论坛是注册对了!
回复 支持 反对

使用道具 举报

永恒神话

高清币
6730
金钱
12777
鲜花
0
在线时间
1877 小时
最后登录
2019-5-24
发表于 7 天前 | 显示全部楼层

这个帖子不回对不起自己!我想我是一天也不能离开中国高清论坛
回复 支持 反对

使用道具 举报

好莱坞明星

高清币
972
金钱
5274
鲜花
0
在线时间
368 小时
最后登录
2019-5-24
发表于 7 天前 | 显示全部楼层
这片看起来不错的,要支持!
回复 支持 反对

使用道具 举报

人气偶像

高清币
0
金钱
1261
鲜花
0
在线时间
207 小时
最后登录
2019-5-22
发表于 7 天前 | 显示全部楼层

谢谢楼主分享
回复 支持 反对

使用道具 举报

好莱坞明星

高清币
972
金钱
5274
鲜花
0
在线时间
368 小时
最后登录
2019-5-24
发表于 7 天前 | 显示全部楼层
这片看起来不错的,要支持!
回复 支持 反对

使用道具 举报

懒得打字嘛,点击右侧快捷回复 【右侧内容,后台自定义】
您需要登录后才可以回帖 登录 | 立即注册

本版积分规则

QQ|手机版|小黑屋|85楼娱乐社区 ( 黔ICP备16007815号-1 )

GMT+8, 2019-5-24 11:20 , Processed in 0.055333 second(s), 29 queries .

Powered by Discuz! X3.4

© 2001-2017 Comsenz Inc.

快速回复 返回顶部 返回列表