请选择 进入手机版 | 继续访问电脑版

中国高清论坛

 找回密码
 立即注册
搜索
查看: 188|回复: 38

[完结] [戈德堡一家 第六季][全24集][1080p.AMZN.WEBRip.DDP5.1.x264-NTb][27.2GB]

[复制链接]

超级版主

高清币
488825
金钱
20883
鲜花
58
在线时间
2934 小时
最后登录
2019-6-24
发表于 2019-5-20 10:21:22 | 显示全部楼层 |阅读模式


◎译  名 戈德堡一家 第六季 / 金色年代
◎片  名 The Goldbergs Season 6
◎年  代 2018
◎产  地 美国
◎类  别 喜剧
◎语  言 英语
◎上映日期 2018-09-26(美国)
◎IMDb评分  7.5/10 from 156 users
◎IMDb链接  http://www.imdb.com/title/tt6954956
◎豆瓣评分 8.8/10 from 111 users
◎豆瓣链接 https://movie.douban.com/subject/27042746/
◎集  数 24
◎导  演 Lew Schneider
◎编  剧 Alex Barnow
◎主  演 温迪·麦克伦登-考威 Wendi McLendon-Covey
      杰夫·格尔林 Jeff Garlin
      乔治·席格 George Segal
      肖恩·吉布朗尼 Sean Giambrone
      托伊·金太尔 Troy Gentile
      海莉·奥兰蒂亚 Hayley Orrantia
      山姆·勒纳 Sam Lerner
      阿曼达·米夏卡 AJ Michalka
      Kenny Ridwan
      大卫·科恩查内 David Koechner
      西恩·马奎特 Sean Marquette
      斯蒂芬妮·凯瑟琳·格兰特 Stephanie Katherine Grant
      Niko Guardado


◎标  签 美剧 | 家庭 | 喜剧 | 温馨 | 美国 | 怀旧 | 80s | 电视剧

◎简  介  

  ABC宣布续订《戈德堡一家》两季。





Video
ID : 1
Format : AVC
Format/Info : Advanced Video Codec
Format profile : High@L4
Format settings : CABAC / 4 Ref Frames
Format settings, CABAC : Yes
Format settings, ReFrames : 4 frames
Codec ID : V_MPEG4/ISO/AVC
Duration : 21 min 33 s
Bit rate mode : Constant
Bit rate : 10 000 kb/s
Width : 1 920 pixels
Height : 1 080 pixels
Display aspect ratio : 16:9
Frame rate mode : Constant
Frame rate : 23.976 (24000/1001) FPS
Color space : YUV
Chroma subsampling : 4:2:0
Bit depth : 8 bits
Scan type : Progressive
Bits/(Pixel*Frame) : 0.201
Stream size : 1.46 GiB (94%)
Default : Yes
Forced : No
Color range : Limited
Color primaries : BT.709
Transfer characteristics : BT.709
Matrix coefficients : BT.709

Audio
ID : 2
Format : E-AC-3
Format/Info : Enhanced AC-3
Commercial name : Dolby Digital Plus
Codec ID : A_EAC3
Duration : 21 min 33 s
Bit rate mode : Constant
Bit rate : 640 kb/s
Channel(s) : 6 channels
Channel layout : L R C LFE Ls Rs
Sampling rate : 48.0 kHz
Frame rate : 31.250 FPS (1536 SPF)
Compression mode : Lossy
Stream size : 98.7 MiB (6%)
Language : English
Service kind : Complete Main
Default : Yes
Forced : No

Text
ID : 3
Format : UTF-8
Codec ID : S_TEXT/UTF8
Codec ID/Info : UTF-8 Plain Text
Duration : 21 min 25 s
Bit rate : 132 b/s
Count of elements : 643
Stream size : 20.8 KiB (0%)
Title : SDH
Language : English
Default : No
Forced : No
游客,如果您要查看本帖隐藏内容请回复,您还可以免扣高清币免回复下载:https://www.85lou.com/plugin.php?id=wyfaka_url:url


回复

使用道具 举报

金鸡奖主角

高清币
28
金钱
5946
鲜花
0
在线时间
3264 小时
最后登录
2019-6-24
发表于 2019-5-20 10:23:09 | 显示全部楼层

楼主,大恩不言谢了!中国高清论坛是最棒的!
回复 支持 反对

使用道具 举报

天王巨星

高清币
3
金钱
2286
鲜花
0
在线时间
484 小时
最后登录
2019-5-31
发表于 2019-5-20 10:34:52 | 显示全部楼层
楼主发贴辛苦了,谢谢楼主分享!我觉得中国高清论坛是注册对了!
回复 支持 反对

使用道具 举报

知名艺人

高清币
0
金钱
223
鲜花
0
在线时间
30 小时
最后登录
2019-6-6
发表于 2019-5-20 10:38:57 | 显示全部楼层
感谢楼主分享~!
回复 支持 反对

使用道具 举报

人气偶像

高清币
2
金钱
1123
鲜花
0
在线时间
112 小时
最后登录
2019-6-5
发表于 2019-5-20 10:41:31 | 显示全部楼层
谢楼主分享,顶一个!
回复 支持 反对

使用道具 举报

天王巨星

高清币
1
金钱
2142
鲜花
0
在线时间
231 小时
最后登录
2019-6-22
发表于 2019-5-20 10:49:20 | 显示全部楼层

既然你诚信诚意的推荐了,那我就勉为其难的看看吧!中国高清论坛不走平凡路。
回复 支持 反对

使用道具 举报

知名艺人

高清币
0
金钱
442
鲜花
0
在线时间
54 小时
最后登录
2019-5-20
发表于 2019-5-20 10:51:22 | 显示全部楼层

这东西我收了!谢谢楼主!中国高清论坛真好!
回复 支持 反对

使用道具 举报

影坛巨星

高清币
1326
金钱
8809
鲜花
0
在线时间
1121 小时
最后登录
2019-6-24
发表于 2019-5-20 10:52:58 | 显示全部楼层

楼主太厉害了!楼主,电影应该很好看我觉得中国高清论坛真是个好地方!
回复 支持 反对

使用道具 举报

人气偶像

高清币
0
金钱
776
鲜花
0
在线时间
250 小时
最后登录
2019-6-24
发表于 2019-5-20 10:54:08 | 显示全部楼层

其实我一直觉得楼主的品味不错!呵呵!中国高清论坛太棒了!
回复 支持 反对

使用道具 举报

知名艺人

高清币
9
金钱
279
鲜花
0
在线时间
45 小时
最后登录
2019-6-23
发表于 2019-5-20 10:58:39 | 显示全部楼层

既然你诚信诚意的推荐了,那我就勉为其难的看看吧!
回复 支持 反对

使用道具 举报

懒得打字嘛,点击右侧快捷回复 【右侧内容,后台自定义】
您需要登录后才可以回帖 登录 | 立即注册

本版积分规则

QQ|手机版|小黑屋|中国高清论坛 ( 黔ICP备16007815号-1 )

GMT+8, 2019-6-24 23:50 , Processed in 0.059521 second(s), 29 queries .

Powered by Discuz! X3.4

© 2001-2017 Comsenz Inc.

快速回复 返回顶部 返回列表