请选择 进入手机版 | 继续访问电脑版

中国高清论坛

 找回密码
 立即注册
搜索
查看: 4419|回复: 1161

[惊悚片] 孟买酒店/失控危城(台).2018.1080p.WEB-DL.DD5.1.H264-FGT

  [复制链接]

超级版主

高清币
17046
金钱
39535
鲜花
0
在线时间
12125 小时
最后登录
2019-9-16
发表于 2019-6-5 18:35:33 | 显示全部楼层 |阅读模式


◎译  名 孟买酒店/失控危城(台)
◎年  代 2018
◎国  家 澳大利亚/美国/印度
◎类  别 剧情/惊悚/历史
◎语  言 英语
◎IMDb评分 7.8/10 from 6952 users
◎IMDB链接 http://www.imdb.com/title/tt5461944
◎片  长 12 h 3 min
◎导  演 安东尼·马拉斯 Anthony Maras
◎主  演 艾米·汉莫 Armie Hammer
      纳赞宁·波妮阿蒂 Nazanin Boniadi
      戴夫·帕特尔 Dev Patel
      詹森·艾萨克 Jason Isaacs
      阿努潘·凯尔 Anupam Kher
      刘承羽 Natasha Liu Bordizzo
      安格斯·麦克拉伦 Angus McLaren
      萨钦·乔伯 Sachin Joab
      蒂尔达·格哈姆-哈维 Tilda Cobham-Hervey
      维品·沙尔马 Vipin Sharma
      阿布罗伊·辛格 Abhiroy Singh
      迪维亚·阿妮 Divya Unny
      桑迪普·博雅卡 Sandeep Bhojak
      Zenia Starr




◎简  介

  影片真实再现震惊世界的“印度9·11”孟买恐袭事件,2008年11月,著名的泰姬陵酒店意外遭到恐怖分子入侵,恐怖分子无差别行凶,让整个酒店陷入绝望之境,百余名酒店住客及员工被困,无人得知何时能等来救援,一场与死神的赛跑就此开启…

  1. Video
  2. ID : 1
  3. Format : AVC
  4. Format/Info : Advanced Video Codec
  5. Format profile : High@L4
  6. Format settings : CABAC / 5 Ref Frames
  7. Format settings, CABAC : Yes
  8. Format settings, ReFrames : 5 frames
  9. Codec ID : V_MPEG4/ISO/AVC
  10. Duration : 2 h 3 min
  11. Bit rate : 4 585 kb/s
  12. Width : 1 920 pixels
  13. Height : 800 pixels
  14. Display aspect ratio : 2.40:1
  15. Frame rate mode : Constant
  16. Frame rate : 23.976 (24000/1001) FPS
  17. Color space : YUV
  18. Chroma subsampling : 4:2:0
  19. Bit depth : 8 bits
  20. Scan type : Progressive
  21. Bits/(Pixel*Frame) : 0.124
  22. Stream size : 3.95 GiB (92%)
  23. Title : Hotel.Mumbai.2018.1080p.WEB-DL.DD5.1.H264-FGT
  24. Language : English
  25. Default : Yes
  26. Forced : No
  27. Color range : Limited
  28. Color primaries : BT.709
  29. Transfer characteristics : BT.709
  30. Matrix coefficients : BT.709

  31. Audio
  32. ID : 2
  33. Format : AC-3
  34. Format/Info : Audio Coding 3
  35. Commercial name : Dolby Digital
  36. Codec ID : A_AC3
  37. Duration : 2 h 3 min
  38. Bit rate mode : Constant
  39. Bit rate : 384 kb/s
  40. Channel(s) : 6 channels
  41. Channel layout : L R C LFE Ls Rs
  42. Sampling rate : 48.0 kHz
  43. Frame rate : 31.250 FPS (1536 SPF)
  44. Bit depth : 16 bits
  45. Compression mode : Lossy
  46. Stream size : 338 MiB (8%)
  47. Title : Hotel.Mumbai.2018.1080p.WEB-DL.DD5.1.H264-FGT
  48. Language : English
  49. Service kind : Complete Main
  50. Default : Yes
  51. Forced : No

  52. Text
  53. ID : 3
  54. Format : UTF-8
  55. Codec ID : S_TEXT/UTF8
  56. Codec ID/Info : UTF-8 Plain Text
  57. Duration : 1 h 49 min
  58. Bit rate : 13 b/s
  59. Count of elements : 472
  60. Stream size : 11.0 KiB (0%)
  61. Title : FORCED
  62. Language : English
  63. Default : Yes
  64. Forced : No

  65. Menu
  66. 00:00:00.000 : en:Chapter 01
  67. 00:10:35.510 : en:Chapter 02
  68. 00:19:17.072 : en:Chapter 03
  69. 00:29:54.417 : en:Chapter 04
  70. 00:42:13.738 : en:Chapter 05
  71. 00:53:04.138 : en:Chapter 06
  72. 01:01:18.172 : en:Chapter 07
  73. 01:15:30.732 : en:Chapter 08
  74. 01:25:33.000 : en:Chapter 09
  75. 01:36:06.216 : en:Chapter 10
  76. 01:46:43.895 : en:Chapter 11
  77. 01:55:54.861 : en:Chapter 12
复制代码








游客,如果您要查看本帖隐藏内容请回复,您还可以免扣高清币免回复下载:https://www.85lou.com/plugin.php?id=wyfaka_url:url
回复

使用道具 举报

金鸡奖主角

高清币
1512
金钱
5072
鲜花
0
在线时间
611 小时
最后登录
2019-9-16
发表于 2019-6-5 18:51:50 | 显示全部楼层
楼主发贴辛苦了,谢谢楼主分享!我觉得中国高清论坛是注册对了!

点评

因版权要求下载不了  发表于 2019-6-12 16:28
回复 支持 反对

使用道具 举报

永恒神话

高清币
39887
金钱
79171
鲜花
0
在线时间
6803 小时
最后登录
2019-9-16
发表于 2019-6-5 18:52:21 | 显示全部楼层

我看不错噢 谢谢楼主!中国高清论坛越来越好!
回复 支持 反对

使用道具 举报

金鸡奖主角

高清币
76
金钱
6100
鲜花
0
在线时间
2264 小时
最后登录
2019-9-16
发表于 2019-6-5 18:58:31 | 显示全部楼层
楼主发贴辛苦了,谢谢楼主分享!我觉得中国高清论坛是注册对了!
回复 支持 反对

使用道具 举报

知名艺人

高清币
0
金钱
180
鲜花
0
在线时间
33 小时
最后登录
2019-9-13
发表于 2019-6-5 19:04:02 | 显示全部楼层
楼主发贴辛苦了,谢谢楼主分享!我觉得中国高清论坛是注册对了!
回复 支持 反对

使用道具 举报

金鸡奖主角

高清币
890
金钱
2383
鲜花
0
在线时间
76 小时
最后登录
2019-7-30
发表于 2019-6-5 19:08:47 | 显示全部楼层
马达丽娜·珍娜 Madalina Ghenea
回复 支持 反对

使用道具 举报

人气偶像

高清币
16
金钱
967
鲜花
0
在线时间
783 小时
最后登录
2019-9-15
发表于 2019-6-5 19:17:57 | 显示全部楼层

楼主发贴辛苦了,谢谢楼主分享
回复 支持 反对

使用道具 举报

金鸡奖主角

高清币
229
金钱
4778
鲜花
0
在线时间
1296 小时
最后登录
2019-9-14
发表于 2019-6-5 19:18:34 | 显示全部楼层
楼主发贴辛苦了,谢谢楼主分享!我觉得中国高清论坛是注册对了!
回复 支持 反对

使用道具 举报

金鸡奖主角

高清币
3
金钱
3777
鲜花
0
在线时间
799 小时
最后登录
2019-9-14
发表于 2019-6-5 19:21:51 | 显示全部楼层
楼主发贴辛苦了,谢谢楼主分享!我觉得中国高清论坛是注册对了!
回复 支持 反对

使用道具 举报

懒得打字嘛,点击右侧快捷回复 【右侧内容,后台自定义】
您需要登录后才可以回帖 登录 | 立即注册

本版积分规则

QQ|手机版|小黑屋|中国高清论坛 ( 黔ICP备16007815号-1 )

GMT+8, 2019-9-16 20:45 , Processed in 0.066025 second(s), 27 queries .

Powered by Discuz! X3.4

© 2001-2017 Comsenz Inc.

快速回复 返回顶部 返回列表