请选择 进入手机版 | 继续访问电脑版

中国高清论坛

 找回密码
 立即注册
搜索
查看: 3441|回复: 978

[动作片] 大侦探皮卡丘 Pokemon.Detective.Pikachu.2019.1080p.HDRip.x264.AAC2.0-STUTTERSHIT

  [复制链接]

超级版主

高清币
16129
金钱
37541
鲜花
0
在线时间
11702 小时
最后登录
2019-6-27
发表于 2019-6-6 07:46:42 | 显示全部楼层 |阅读模式


◎译  名 大侦探皮卡丘/精灵宝可梦:大侦探皮卡丘/POKéMON 名侦探皮卡丘(台)/宠物小精灵之名侦探皮卡丘/精灵宝可梦之名侦探皮卡丘/宠物小精灵/宠物小精灵真人版/精灵宝可梦/名侦探皮卡丘
◎片  名 Pokémon Detective Pikachu
◎年  代 2019
◎国  家 日本/美国/英国
◎类  别 动作/冒险/喜剧
◎语  言 英语
◎IMDb评分 6.9/10 from 45066 users
◎IMDB链接 https://www.imdb.com/title/tt5884052/
◎片  长 1 h 37 min
◎导  演 罗伯·莱特曼 Rob Letterman
◎主  演 瑞恩·雷诺兹 Ryan Reynolds
       贾斯蒂斯·史密斯 Justice Smith
       凯瑟琳·纽顿 Kathryn Newton
       克里斯·吉尔 Chris Geere


◎简  介 


  蒂姆·古德曼(贾斯提斯·史密斯饰)为寻找下落不明的父亲来到莱姆市,意外与父亲的前宝可梦搭档大侦探皮卡丘(瑞安·雷诺兹 配音)相遇,并惊讶地发现自己是唯一能听懂皮卡丘说话的人类,他们决定组队踏上揭开真相的刺激冒险之路。探案过程中他们邂逅了各式各样的宝可梦,并意外发现了一个足以毁灭整个宝可梦宇宙的惊天阴谋。

花絮

1.作为全球首部真人宝可梦电影,导演罗伯·莱特曼创新采用35mm胶片,并尽可能地使用实景拍摄35mm胶片实拍,真实视效连瑞安·雷诺兹都惊呼“会呼吸的大侦探皮卡丘”。

2.影片在开拍前花了一年时间设计角色,罗伯·莱特曼执导,两届奥斯卡提名摄影导演的约翰·马西森掌镜,《狮子王》动画团队等全球顶尖团队掌舵,甚至请来了宝可梦原版游戏插画家杉森建。

3.观众都能听到的“Pika Pika”,它的配音正是《宝可梦》系列皮卡丘的御用配音大谷育江。

4.影片终极一战发生在莱姆市,出现了巨大的皮卡丘形象气球,此处致敬的是自1924年开始,美国梅西百货公司主办的一年一度的梅西感恩节大游行。现实中梅西感恩节大游行也出现过皮卡丘形象的气球。

5.咖啡控”的大侦探皮卡丘最爱乐天河童制作的加浓黑咖啡。这也是致敬原作游戏的一幕。

6.力求真实,导演罗伯·莱特曼大部分时间在伦敦进行实景拍摄。

7.从第一世代到第七世代的宝可梦均有登场。杰尼龟、可达鸭、怪力、卡比兽、卡拉卡拉、比比鸟、小火龙、长尾怪手、乐天河童、扒手猫、胖丁、魔墙人偶、睡睡菇、土台龟、甲贺忍蛙等云集莱姆市。

8.担任男主蒂姆的日语配音的竹内凉真,也在影片中惊鸿一瞥。他戴着红帽子出场,饰演了初代的初代游戏主角red。
  1. Video
  2. ID : 1
  3. Format : AVC
  4. Format/Info : Advanced Video Codec
  5. Format profile : High@L4.1
  6. Format settings : CABAC / 5 Ref Frames
  7. Format settings, CABAC : Yes
  8. Format settings, ReFrames : 5 frames
  9. Codec ID : V_MPEG4/ISO/AVC
  10. Duration : 1 h 37 min
  11. Bit rate : 4 897 kb/s
  12. Width : 1 920 pixels
  13. Height : 800 pixels
  14. Display aspect ratio : 2.40:1
  15. Frame rate mode : Constant
  16. Frame rate : 30.303 FPS
  17. Color space : YUV
  18. Chroma subsampling : 4:2:0
  19. Bit depth : 8 bits
  20. Scan type : Progressive
  21. Bits/(Pixel*Frame) : 0.105
  22. Stream size : 3.35 GiB (95%)
  23. Title : Pokemon.Detective.Pikachu.2019.1080p.HDRip.x264.AAC2.0-STUTTERSHIT
  24. Writing library : x264 core 142 r2479 dd79a61
  25. Encoding settings : cabac=1 / ref=5 / deblock=1:0:0 / analyse=0x3:0x113 / me=umh / subme=8 / psy=1 / psy_rd=1.00:0.00 / mixed_ref=1 / me_range=16 / chroma_me=1 / trellis=1 / 8x8dct=1 / cqm=0 / deadzone=21,11 / fast_pskip=1 / chroma_qp_offset=-2 / threads=24 / lookahead_threads=4 / sliced_threads=0 / nr=0 / decimate=1 / interlaced=0 / bluray_compat=0 / constrained_intra=0 / bframes=3 / b_pyramid=2 / b_adapt=2 / b_bias=0 / direct=3 / weightb=1 / open_gop=0 / weightp=2 / keyint=300 / keyint_min=30 / scenecut=40 / intra_refresh=0 / rc_lookahead=50 / rc=abr / mbtree=1 / bitrate=4897 / ratetol=1.0 / qcomp=0.60 / qpmin=0 / qpmax=69 / qpstep=4 / vbv_maxrate=62500 / vbv_bufsize=78125 / nal_hrd=none / filler=0 / ip_ratio=1.40 / aq=1:1.00
  26. Language : English
  27. Default : Yes
  28. Forced : No
  29. Color range : Limited
  30. Color primaries : BT.709
  31. Transfer characteristics : BT.709
  32. Matrix coefficients : BT.709

  33. Audio
  34. ID : 2
  35. Format : AAC LC
  36. Format/Info : Advanced Audio Codec Low Complexity
  37. Codec ID : A_AAC-2
  38. Duration : 1 h 37 min
  39. Bit rate : 256 kb/s
  40. Channel(s) : 2 channels
  41. Channel layout : L R
  42. Sampling rate : 48.0 kHz
  43. Frame rate : 46.875 FPS (1024 SPF)
  44. Compression mode : Lossy
  45. Delay relative to video : -109 ms
  46. Stream size : 178 MiB (5%)
  47. Title : Pokemon.Detective.Pikachu.2019.1080p.HDRip.x264.AAC2.0-STUTTERSHIT
  48. Language : English
  49. Default : Yes
  50. Forced : No
复制代码








游客,如果您要查看本帖隐藏内容请回复,您还可以免扣高清币免回复下载:https://www.85lou.com/plugin.php?id=wyfaka_url:url
回复

使用道具 举报

人气偶像

高清币
6
金钱
1577
鲜花
0
在线时间
260 小时
最后登录
2019-6-20
发表于 2019-6-6 08:10:32 | 显示全部楼层
楼主发贴辛苦了,谢谢楼主分享!我觉得中国高清论坛是注册对了!
回复 支持 0 反对 3

使用道具 举报

天王巨星

高清币
9
金钱
2721
鲜花
0
在线时间
1018 小时
最后登录
2019-6-27
发表于 2019-6-6 12:02:46 | 显示全部楼层
好莱坞真人电影《大侦探皮卡丘》(暂译)讲述了蒂姆·古德曼(贾 斯 提·史密斯饰) 为寻找下落不明的父亲来到莱姆市,意外与父亲的前宝可梦搭档大侦探皮卡丘相遇,并惊讶地发现自己是唯一能听懂皮卡丘说话的人类,他们决定组队踏上揭开真相的刺激冒险之路。探案过程中他们邂逅了各式各样 的宝可梦,并意外发现了一个足以毁灭整个宝可梦宇宙的惊天阴谋。该电影改编自任天堂3DS同名游戏,由罗伯·莱特曼导演,瑞安·雷诺兹为大侦探皮卡丘配音,贾斯提斯·史密斯、凯瑟琳·纽顿等主演。
回复 支持 2 反对 1

使用道具 举报

superstar

高清币
3848
金钱
7901
鲜花
0
在线时间
4124 小时
最后登录
2019-6-27
发表于 2019-6-6 23:56:38 | 显示全部楼层
Thanks for sharing
回复 支持 1 反对 0

使用道具 举报

人气偶像

高清币
0
金钱
623
鲜花
0
在线时间
66 小时
最后登录
2019-6-10
发表于 2019-6-6 23:27:40 | 显示全部楼层

这个帖子不回对不起自己!我想我是一天也不能离开中国高清论坛
回复 支持 1 反对 0

使用道具 举报

跑龙套

高清币
1
金钱
101
鲜花
0
在线时间
19 小时
最后登录
2019-6-26
发表于 2019-6-6 14:58:52 | 显示全部楼层
谢谢楼主!中国高清论坛真好!
回复 支持 1 反对 0

使用道具 举报

好莱坞明星

高清币
2584
金钱
3155
鲜花
0
在线时间
172 小时
最后登录
2019-6-27
发表于 2019-6-6 23:36:35 | 显示全部楼层
高清论坛很nice
回复 支持 1 反对 0

使用道具 举报

人气偶像

高清币
80
金钱
726
鲜花
0
在线时间
257 小时
最后登录
2019-6-26
发表于 2019-6-6 14:55:56 | 显示全部楼层

我看不错噢 谢谢楼主!中国高清论坛越来越好!
回复 支持 1 反对 0

使用道具 举报

天王巨星

高清币
9
金钱
2721
鲜花
0
在线时间
1018 小时
最后登录
2019-6-27
发表于 2019-6-6 12:03:04 | 显示全部楼层
好莱坞真人电影《大侦探皮卡丘》(暂译)讲述了蒂姆·古德曼(贾 斯 提·史密斯饰) 为寻找下落不明的父亲来到莱姆市,意外与父亲的前宝可梦搭档大侦探皮卡丘相遇,并惊讶地发现自己是唯一能听懂皮卡丘说话的人类,他们决定组队踏上揭开真相的刺激冒险之路。探案过程中他们邂逅了各式各样 的宝可梦,并意外发现了一个足以毁灭整个宝可梦宇宙的惊天阴谋。该电影改编自任天堂3DS同名游戏,由罗伯·莱特曼导演,瑞安·雷诺兹为大侦探皮卡丘配音,贾斯提斯·史密斯、凯瑟琳·纽顿等主演。
回复 支持 1 反对 0

使用道具 举报

天王巨星

高清币
9
金钱
2721
鲜花
0
在线时间
1018 小时
最后登录
2019-6-27
发表于 2019-6-6 12:03:48 | 显示全部楼层
好莱坞真人电影《大侦探皮卡丘》(暂译)讲述了蒂姆·古德曼(贾 斯 提·史密斯饰) 为寻找下落不明的父亲来到莱姆市,意外与父亲的前宝可梦搭档大侦探皮卡丘相遇,并惊讶地发现自己是唯一能听懂皮卡丘说话的人类,他们决定组队踏上揭开真相的刺激冒险之路。探案过程中他们邂逅了各式各样 的宝可梦,并意外发现了一个足以毁灭整个宝可梦宇宙的惊天阴谋。该电影改编自任天堂3DS同名游戏,由罗伯·莱特曼导演,瑞安·雷诺兹为大侦探皮卡丘配音,贾斯提斯·史密斯、凯瑟琳·纽顿等主演。
回复 支持 1 反对 0

使用道具 举报

影坛巨星

高清币
2735
金钱
9278
鲜花
0
在线时间
707 小时
最后登录
2019-6-27
发表于 2019-6-6 07:48:13 | 显示全部楼层
楼主发贴辛苦了,谢谢楼主分享!我觉得中国高清论坛是注册对了!
回复 支持 反对

使用道具 举报

金鸡奖主角

高清币
130
金钱
3515
鲜花
0
在线时间
950 小时
最后登录
2019-6-27
发表于 2019-6-6 07:50:32 | 显示全部楼层

这个帖子不回对不起自己!我想我是一天也不能离开中国高清论坛
回复 支持 反对

使用道具 举报

天王巨星

高清币
209
金钱
2363
鲜花
0
在线时间
1083 小时
最后登录
2019-6-27
发表于 2019-6-6 07:52:30 | 显示全部楼层

这个帖子不回对不起自己!我想我是一天也不能离开中国高清论坛
回复 支持 反对

使用道具 举报

超级明星

高清币
1631
金钱
5783
鲜花
0
在线时间
1164 小时
最后登录
2019-6-27
发表于 2019-6-6 07:53:34 | 显示全部楼层
楼主发贴辛苦了,谢谢楼主分享!我觉得中国高清论坛是注册对了!
回复 支持 反对

使用道具 举报

天王巨星

高清币
607
金钱
1775
鲜花
0
在线时间
115 小时
最后登录
2019-6-27
发表于 2019-6-6 07:53:39 | 显示全部楼层
谢谢楼主分享!
回复 支持 反对

使用道具 举报

金鸡奖主角

高清币
585
金钱
3624
鲜花
0
在线时间
801 小时
最后登录
2019-6-27
发表于 2019-6-6 07:54:41 | 显示全部楼层

这东西我收了!谢谢楼主!中国高清论坛真好!
回复 支持 反对

使用道具 举报

影坛巨星

高清币
3186
金钱
6021
鲜花
0
在线时间
1588 小时
最后登录
2019-6-27
发表于 2019-6-6 08:02:45 | 显示全部楼层

这个帖子不回对不起自己!我想我是一天也不能离开中国高清论坛
回复 支持 反对

使用道具 举报

superstar

高清币
3963
金钱
8591
鲜花
0
在线时间
2533 小时
最后登录
2019-6-27
发表于 2019-6-6 08:04:19 | 显示全部楼层

感谢楼主的无私分享!要想中国高清论坛好 就靠你我他
回复 支持 反对

使用道具 举报

懒得打字嘛,点击右侧快捷回复 【右侧内容,后台自定义】
您需要登录后才可以回帖 登录 | 立即注册

本版积分规则

QQ|手机版|小黑屋|中国高清论坛 ( 黔ICP备16007815号-1 )

GMT+8, 2019-6-27 20:01 , Processed in 0.061542 second(s), 30 queries .

Powered by Discuz! X3.4

© 2001-2017 Comsenz Inc.

快速回复 返回顶部 返回列表