请选择 进入手机版 | 继续访问电脑版

中国高清论坛

 找回密码
 立即注册
搜索
查看: 3845|回复: 790

[动画片] 蝙蝠侠大战忍者神龟 B.vs.T.M.N.T.2019.1080p.BluRay.x264.DTS-FGT 7.91 GiB

  [复制链接]

超级版主

高清币
16103
金钱
37483
鲜花
0
在线时间
11683 小时
最后登录
2019-6-24
发表于 2019-6-7 08:59:04 | 显示全部楼层 |阅读模式



◎译  名 蝙蝠侠大战忍者神龟
◎片  名 Batman Vs. Teenage Mutant Ninja Turtles
◎年  代 2019
◎产  地 美国
◎类  别 动画
◎语  言 英语
◎IMDb评分 8.6/10 from 66 users
◎IMDB链接 https://www.imdb.com/title/tt9775360/
◎片  长 1 h 27 min
◎导  演 杰克·卡斯托雷纳 Jake Castorena
◎主  演 达伦·克里斯 Darren Criss
       塔拉·斯特朗 Tara Strong
       蕾切尔·布鲁姆 Rachel Bloom
       汤姆·肯尼 Tom Kenny


◎简  介


  本片讲述了四只忍者神龟与蝙蝠侠跨时空相遇,并联手对抗最强敌人的故事。  

  1. Video
  2. ID : 1
  3. Format : AVC
  4. Format/Info : Advanced Video Codec
  5. Format profile : [email]High@L4.1[/email]
  6. Format settings : CABAC / 4 Ref Frames
  7. Format settings, CABAC : Yes
  8. Format settings, ReFrames : 4 frames
  9. Codec ID : V_MPEG4/ISO/AVC
  10. Duration : 1 h 27 min
  11. Bit rate : 11.5 Mb/s
  12. Width : 1 920 pixels
  13. Height : 1 080 pixels
  14. Display aspect ratio : 16:9
  15. Frame rate mode : Constant
  16. Frame rate : 23.976 (24000/1001) FPS
  17. Color space : YUV
  18. Chroma subsampling : 4:2:0
  19. Bit depth : 8 bits
  20. Scan type : Progressive
  21. Bits/(Pixel*Frame) : 0.231
  22. Stream size : 6.99 GiB (88%)
  23. Title : Batman.vs.Teenage.Mutant.Ninja.Turtles.2019.1080p.BluRay.x264.DTS-FGT
  24. Writing library : x264 core 148 r2795M aaa9aa8
  25. Encoding settings : cabac=1 / ref=4 / deblock=1:1:1 / analyse=0x3:0x113 / me=umh / subme=8 / psy=1 / psy_rd=0.50:0.00 / mixed_ref=1 / me_range=32 / chroma_me=1 / trellis=2 / 8x8dct=1 / cqm=0 / deadzone=21,11 / fast_pskip=1 / chroma_qp_offset=-2 / threads=34 / lookahead_threads=3 / sliced_threads=0 / nr=0 / decimate=1 / interlaced=0 / bluray_compat=0 / constrained_intra=0 / bframes=3 / b_pyramid=2 / b_adapt=1 / b_bias=0 / direct=3 / weightb=1 / open_gop=0 / weightp=2 / keyint=240 / keyint_min=24 / scenecut=40 / intra_refresh=0 / rc_lookahead=50 / rc=2pass / mbtree=1 / bitrate=11500 / ratetol=1.0 / qcomp=0.60 / qpmin=0 / qpmax=69 / qpstep=4 / cplxblur=20.0 / qblur=0.5 / vbv_maxrate=31250 / vbv_bufsize=31250 / nal_hrd=none / filler=0 / ip_ratio=1.40 / aq=3:0.60
  26. Language : English
  27. Default : Yes
  28. Forced : No

  29. Audio
  30. ID : 2
  31. Format : DTS
  32. Format/Info : Digital Theater Systems
  33. Codec ID : A_DTS
  34. Duration : 1 h 27 min
  35. Bit rate mode : Constant
  36. Bit rate : 1 509 kb/s
  37. Channel(s) : 6 channels
  38. Channel layout : C L R Ls Rs LFE
  39. Sampling rate : 48.0 kHz
  40. Frame rate : 93.750 FPS (512 SPF)
  41. Bit depth : 16 bits
  42. Compression mode : Lossy
  43. Stream size : 939 MiB (12%)
  44. Title : Batman.vs.Teenage.Mutant.Ninja.Turtles.2019.1080p.BluRay.x264.DTS-FGT
  45. Language : English
  46. Default : No
  47. Forced : No

  48. Text
  49. ID : 3
  50. Format : UTF-8
  51. Codec ID : S_TEXT/UTF8
  52. Codec ID/Info : UTF-8 Plain Text
  53. Duration : 1 h 22 min
  54. Bit rate : 50 b/s
  55. Count of elements : 1022
  56. Stream size : 30.8 KiB (0%)
  57. Language : English
  58. Default : Yes
  59. Forced : No

  60. Menu
  61. 00:00:00.000 : en:Chapter 01
  62. 00:09:08.548 : en:Chapter 02
  63. 00:21:14.856 : en:Chapter 03
  64. 00:32:21.230 : en:Chapter 04
  65. 00:41:15.055 : en:Chapter 05
  66. 00:50:39.661 : en:Chapter 06
  67. 01:00:42.096 : en:Chapter 07
  68. 01:11:20.526 : en:Chapter 08
  69. 01:23:55.572 : en:Chapter 09
复制代码








游客,如果您要查看本帖隐藏内容请回复,您还可以免扣高清币免回复下载:https://www.85lou.com/plugin.php?id=wyfaka_url:url

回复

使用道具 举报

跑龙套

高清币
12
金钱
16
鲜花
0
在线时间
3 小时
最后登录
2019-6-13
发表于 2019-6-7 10:25:34 | 显示全部楼层
少女汁源 很多资深老司机都在这,复制打开:  www.bu9.me
回复 支持 2 反对 0

使用道具 举报

永恒神话

高清币
5618
金钱
10481
鲜花
0
在线时间
1413 小时
最后登录
2019-6-24
发表于 2019-6-7 09:01:53 | 显示全部楼层

其实我一直觉得楼主的品味不错!呵呵!中国高清论坛太棒了!
回复 支持 1 反对 0

使用道具 举报

人气偶像

高清币
79
金钱
1284
鲜花
0
在线时间
115 小时
最后登录
2019-6-24
发表于 2019-6-7 10:15:19 | 显示全部楼层

既然你诚信诚意的推荐了,那我就勉为其难的看看吧!中国高清论坛不走平凡路。
回复 支持 1 反对 0

使用道具 举报

天王巨星

高清币
6
金钱
3024
鲜花
0
在线时间
461 小时
最后登录
2019-6-11
发表于 2019-6-7 10:25:43 | 显示全部楼层

楼主太厉害了!楼主,电影应该很好看我觉得中国高清论坛真是个好地方!
回复 支持 1 反对 0

使用道具 举报

永恒神话

高清币
4923
金钱
12917
鲜花
0
在线时间
1694 小时
最后登录
2019-6-24
发表于 2019-6-7 09:02:49 | 显示全部楼层
楼主发贴辛苦了,谢谢楼主分享!我觉得中国高清论坛是注册对了!
回复 支持 反对

使用道具 举报

金鸡奖主角

高清币
16
金钱
3523
鲜花
0
在线时间
675 小时
最后登录
2019-6-20
发表于 2019-6-7 09:10:26 | 显示全部楼层
楼主发贴辛苦了,谢谢楼主分享!我觉得中国高清论坛是注册对了!
回复 支持 反对

使用道具 举报

金鸡奖主角

高清币
16
金钱
3523
鲜花
0
在线时间
675 小时
最后登录
2019-6-20
发表于 2019-6-7 09:10:56 | 显示全部楼层
感谢分享,感谢分享。
回复 支持 反对

使用道具 举报

金鸡奖主角

高清币
16
金钱
3523
鲜花
0
在线时间
675 小时
最后登录
2019-6-20
发表于 2019-6-7 09:11:14 | 显示全部楼层
我就做第一个下载的人吧。
回复 支持 反对

使用道具 举报

永恒神话

高清币
38179
金钱
75745
鲜花
0
在线时间
6473 小时
最后登录
2019-6-24
发表于 2019-6-7 09:14:32 | 显示全部楼层

楼主太厉害了!楼主,电影应该很好看我觉得中国高清论坛真是个好地方!
回复 支持 反对

使用道具 举报

人气偶像

高清币
0
金钱
2031
鲜花
0
在线时间
353 小时
最后登录
2019-6-24
发表于 2019-6-7 09:15:17 | 显示全部楼层

楼主太厉害了!楼主,电影应该很好看我觉得中国高清论坛真是个好地方!
回复 支持 反对

使用道具 举报

人气偶像

高清币
0
金钱
2031
鲜花
0
在线时间
353 小时
最后登录
2019-6-24
发表于 2019-6-7 09:16:04 | 显示全部楼层

这个帖子不回对不起自己!我想我是一天也不能离开中国高清论坛
回复 支持 反对

使用道具 举报

懒得打字嘛,点击右侧快捷回复 【右侧内容,后台自定义】
您需要登录后才可以回帖 登录 | 立即注册

本版积分规则

QQ|手机版|小黑屋|中国高清论坛 ( 黔ICP备16007815号-1 )

GMT+8, 2019-6-24 23:17 , Processed in 0.057754 second(s), 30 queries .

Powered by Discuz! X3.4

© 2001-2017 Comsenz Inc.

快速回复 返回顶部 返回列表