请选择 进入手机版 | 继续访问电脑版

中国高清论坛

 找回密码
 立即注册
搜索
查看: 2102|回复: 350

[REMUX] 毒玫瑰2019.1080p.BluRay.REMUX.AVC.DTS-HD.MA.TrueHD.5.1-FGT 28.42 GB

  [复制链接]

龙行天下

高清币
36122
金钱
8779
鲜花
50
在线时间
1992 小时
最后登录
2019-6-24
发表于 2019-6-7 14:19:43 | 显示全部楼层 |阅读模式


◎译  名 毒玫瑰
◎片  名 The Poison Rose
◎年  代 2019
◎产  地 美国
◎类  别 惊悚
◎语  言 英语
◎IMDb评分 4.4/10 from 155 users
◎IMDB链接 https://www.imdb.com/title/tt5862166/
◎片  长 1 h 37 min
◎导  演 弗朗西斯科·钦奎马尼 Francesco Cinquemani
      乔治·加洛 George Gallo
       Giliberto
◎主  演 布兰登·费舍 Brendan Fraser
      法米克·詹森 Famke Janssen
      约翰·特拉沃尔塔 John Travolta
      摩根·弗里曼 Morgan Freeman
      彼得·斯特曼 Peter Stormare
      罗伯特·帕特里克 Robert Patrick
      卡特琳娜·格兰厄姆 Katerina Graham
      克劳迪亚·杰里尼 Claudia Gerini
      尼克·瓦莱隆加 Nick Vallelonga
      艾拉·布勒·特拉沃塔 Ella Bleu Travolta
      Sheila Shah
      威廉·托卡斯基 William Tokarsky
      爱丽丝·帕加尼 Alice Pagani
      David Michael-Smith
      Nadine Lewington
      保罗·辛普森 Paul Sampson
      克里斯蒂娜·塞拉菲尼 Cristina Serafini
      小路易斯·达·席尔瓦 Luis Da Silva Jr.
      伯勒尔·戴斯托捏 Blerim Destani
      克里斯?穆利纳克斯 Chris Mullinax
      Julie Lott
      梅丽莎?格林斯潘 Melissa Greenspan
      Denny Mendez
      托马索·拉佐蒂 Tommaso Lazotti



◎简  介  

  摩根·弗里曼、福里斯特·惠特克有望加盟动作惊悚片[毒玫瑰](The Poison Rose,暂译),约翰·特拉沃尔塔主演,导演乔治·加洛。影片改编自同名小说,故事围绕复杂罪案的侦破展开,影片风格将类似[唐人街]、[洛城机密]、[漫长的告别]。约翰·特拉沃尔塔的女儿艾拉·布勒·特拉沃塔也将出演该片。


[size=10.6667px]
[size=10.6667px]
[size=10.6667px]

Video
ID : 1
Format : AVC
Format/Info : Advanced Video Codec
Format profile : High@L4.1
Format settings : CABAC / 4 Ref Frames
Format settings, CABAC : Yes
Format settings, ReFrames : 4 frames
Codec ID : V_MPEG4/ISO/AVC
Duration : 1 h 37 min
Bit rate mode : Variable
Bit rate : 29.7 Mb/s
Maximum bit rate : 35.0 Mb/s
Width : 1 920 pixels
Height : 1 080 pixels
Display aspect ratio : 16:9
Frame rate mode : Constant
Frame rate : 23.976 (24000/1001) FPS
Standard : NTSC
Color space : YUV
Chroma subsampling : 4:2:0
Bit depth : 8 bits
Scan type : Progressive
Bits/(Pixel*Frame) : 0.598
Stream size : 20.3 GiB (71%)
Title : The.Poison.Rose.2019.1080p.BluRay.REMUX.AVC.DTS-HD.MA.TrueHD.5.1-FGT
Language : English
Default : No
Forced : No
Color range : Limited
Color primaries : BT.709
Transfer characteristics : BT.709
Matrix coefficients : BT.709

Audio #1
ID : 2
Format : MLP FBA
Format/Info : Meridian Lossless Packing FBA
Commercial name : Dolby TrueHD
Codec ID : A_TRUEHD
Duration : 1 h 37 min
Bit rate mode : Variable
Bit rate : 3 367 kb/s
Maximum bit rate : 5 013 kb/s
Channel(s) : 6 channels
Channel layout : L R C LFE Ls Rs
Sampling rate : 48.0 kHz
Frame rate : 1 200.000 FPS (40 SPF)
Compression mode : Lossless
Stream size : 2.30 GiB (8%)
Title : The.Poison.Rose.2019.1080p.BluRay.REMUX.AVC.DTS-HD.MA.TrueHD.5.1-FGT
Language : English
Default : Yes
Forced : No

Audio #2
ID : 3
Format : DTS XLL
Format/Info : Digital Theater Systems
Commercial name : DTS-HD Master Audio
Codec ID : A_DTS
Duration : 1 h 37 min
Bit rate mode : Variable
Bit rate : 3 816 kb/s
Channel(s) : 6 channels
Channel layout : C L R Ls Rs LFE
Sampling rate : 48.0 kHz
Frame rate : 93.750 FPS (512 SPF)
Bit depth : 24 bits
Compression mode : Lossless
Stream size : 2.61 GiB (9%)
Title : The.Poison.Rose.2019.1080p.BluRay.REMUX.AVC.DTS-HD.MA.TrueHD.5.1-FGT
Language : English
Default : No
Forced : No

Audio #3
ID : 4
Format : AC-3
Format/Info : Audio Coding 3
Commercial name : Dolby Digital
Codec ID : A_AC3
Duration : 1 h 37 min
Bit rate mode : Constant
Bit rate : 640 kb/s
Channel(s) : 6 channels
Channel layout : L R C LFE Ls Rs
Sampling rate : 48.0 kHz
Frame rate : 31.250 FPS (1536 SPF)
Bit depth : 16 bits
Compression mode : Lossy
Stream size : 448 MiB (2%)
Title : The.Poison.Rose.2019.1080p.BluRay.REMUX.AVC.DTS-HD.MA.TrueHD.5.1-FGT
Language : English
Service kind : Complete Main
Default : No
Forced : No

Audio #4
ID : 5
Format : MLP FBA
Format/Info : Meridian Lossless Packing FBA
Commercial name : Dolby TrueHD
Codec ID : A_TRUEHD
Duration : 1 h 37 min
Bit rate mode : Variable
Bit rate : 3 256 kb/s
Maximum bit rate : 4 779 kb/s
Channel(s) : 6 channels
Channel layout : L R C LFE Ls Rs
Sampling rate : 48.0 kHz
Frame rate : 1 200.000 FPS (40 SPF)
Compression mode : Lossless
Stream size : 2.23 GiB (8%)
Title : The.Poison.Rose.2019.1080p.BluRay.REMUX.AVC.DTS-HD.MA.TrueHD.5.1-FGT
Language : French
Default : No
Forced : No

Audio #5
ID : 6
Format : AC-3
Format/Info : Audio Coding 3
Commercial name : Dolby Digital
Codec ID : A_AC3
Duration : 1 h 37 min
Bit rate mode : Constant
Bit rate : 640 kb/s
Channel(s) : 6 channels
Channel layout : L R C LFE Ls Rs
Sampling rate : 48.0 kHz
Frame rate : 31.250 FPS (1536 SPF)
Bit depth : 16 bits
Compression mode : Lossy
Stream size : 448 MiB (2%)
Title : The.Poison.Rose.2019.1080p.BluRay.REMUX.AVC.DTS-HD.MA.TrueHD.5.1-FGT
Language : French
Service kind : Complete Main
Default : No
Forced : No

Text #1
ID : 7
Format : UTF-8
Codec ID : S_TEXT/UTF8
Codec ID/Info : UTF-8 Plain Text
Duration : 1 h 31 min
Bit rate : 57 b/s
Count of elements : 1303
Stream size : 38.4 KiB (0%)
Title : English-SRT
Language : English
Default : Yes
Forced : No

Text #2
ID : 8
Format : UTF-8
Codec ID : S_TEXT/UTF8
Codec ID/Info : UTF-8 Plain Text
Duration : 1 h 32 min
Bit rate : 59 b/s
Count of elements : 1418
Stream size : 40.5 KiB (0%)
Title : English-SDH-SRT
Language : English
Default : No
Forced : No

Text #3
ID : 9
Format : PGS
Muxing mode : zlib
Codec ID : S_HDMV/PGS
Codec ID/Info : Picture based subtitle format used on BDs/HD-DVDs
Duration : 1 h 32 min
Bit rate : 28.5 kb/s
Count of elements : 2836
Stream size : 18.9 MiB (0%)
Title : English-PGS
Language : English
Default : No
Forced : No

Text #4
ID : 10
Format : PGS
Muxing mode : zlib
Codec ID : S_HDMV/PGS
Codec ID/Info : Picture based subtitle format used on BDs/HD-DVDs
Duration : 1 h 31 min
Bit rate : 33.6 kb/s
Count of elements : 2926
Stream size : 22.0 MiB (0%)
Title : French-PGS
Language : French
Default : No
Forced : No

Text #5
ID : 11
Format : PGS
Muxing mode : zlib
Codec ID : S_HDMV/PGS
Codec ID/Info : Picture based subtitle format used on BDs/HD-DVDs
Duration : 1 h 27 min
Bit rate : 115 b/s
Count of elements : 8
Stream size : 73.6 KiB (0%)
Title : French-FORCED-PGS
Language : French
Default : No
Forced : No

Menu
00:00:00.000 : en:Chapter 01
00:13:44.740 : en:Chapter 02
00:28:56.776 : en:Chapter 03
00:42:04.980 : en:Chapter 04
00:54:10.372 : en:Chapter 05
01:06:49.797 : en:Chapter 06
01:22:01.625 : en:Chapter 07
01:33:05.288 : en:Chapter 08



游客,如果您要查看本帖隐藏内容请回复,您还可以免扣高清币免回复下载:https://www.85lou.com/plugin.php?id=wyfaka_url:url



#专属夏天的歌词#后来才知道, 好朋友不是通过努力争取来的, 而是在各自的道路上奔跑时遇见的。” ——刘同《向着光亮那方》
回复

使用道具 举报

金鸡奖主角

高清币
783
金钱
2835
鲜花
0
在线时间
334 小时
最后登录
2019-6-24
发表于 2019-6-7 14:22:54 | 显示全部楼层
楼主发贴辛苦了,谢谢楼主分享!我觉得中国高清论坛是注册对了!
回复 支持 反对

使用道具 举报

好莱坞明星

高清币
46
金钱
6124
鲜花
0
在线时间
1831 小时
最后登录
2019-6-24
发表于 2019-6-7 14:25:08 | 显示全部楼层
楼主发贴辛苦了,谢谢楼主分享!我觉得中国高清论坛是注册对了!
回复 支持 反对

使用道具 举报

知名艺人

高清币
125
金钱
133
鲜花
0
在线时间
10 小时
最后登录
2019-6-10
发表于 2019-6-7 14:33:58 | 显示全部楼层

楼主,大恩不言谢了!中国高清论坛是最棒的!
回复 支持 反对

使用道具 举报

永恒神话

高清币
1134
金钱
19218
鲜花
0
在线时间
1851 小时
最后登录
2019-6-24
发表于 2019-6-7 14:35:14 | 显示全部楼层

楼主太厉害了!楼主,电影应该很好看我觉得中国高清论坛真是个好地方!
回复 支持 反对

使用道具 举报

人气偶像

高清币
26
金钱
1493
鲜花
0
在线时间
222 小时
最后登录
2019-6-24
发表于 2019-6-7 14:36:14 | 显示全部楼层

既然你诚信诚意的推荐了,那我就勉为其难的看看吧!中国高清论坛不走平凡路。
回复 支持 反对

使用道具 举报

超级明星

高清币
2611
金钱
3773
鲜花
0
在线时间
287 小时
最后登录
2019-6-24
发表于 2019-6-7 14:37:28 | 显示全部楼层
楼主分享的高清电影太好了!
回复 支持 反对

使用道具 举报

知名艺人

高清币
74
金钱
38
鲜花
0
在线时间
10 小时
最后登录
2019-6-19
发表于 2019-6-7 14:39:46 | 显示全部楼层
楼主发贴辛苦了,谢谢楼主分享
回复 支持 反对

使用道具 举报

好莱坞明星

高清币
33
金钱
8251
鲜花
0
在线时间
1180 小时
最后登录
2019-6-24
发表于 2019-6-7 14:40:31 | 显示全部楼层
谢谢楼主发布。
回复 支持 反对

使用道具 举报

好莱坞明星

高清币
33
金钱
8251
鲜花
0
在线时间
1180 小时
最后登录
2019-6-24
发表于 2019-6-7 14:41:06 | 显示全部楼层
谢谢楼主发布。
回复 支持 反对

使用道具 举报

懒得打字嘛,点击右侧快捷回复 【右侧内容,后台自定义】
您需要登录后才可以回帖 登录 | 立即注册

本版积分规则

QQ|手机版|小黑屋|中国高清论坛 ( 黔ICP备16007815号-1 )

GMT+8, 2019-6-24 23:11 , Processed in 0.055759 second(s), 28 queries .

Powered by Discuz! X3.4

© 2001-2017 Comsenz Inc.

快速回复 返回顶部 返回列表