请选择 进入手机版 | 继续访问电脑版

中国高清论坛

 找回密码
 立即注册
搜索
查看: 4977|回复: 976

[科幻片] 吾乃母亲 [繁简中文] I.Am.Mother.2019.1080p.NF.WEBRip.DDP5.1.x264-NTG 5.07 GB

  [复制链接]

超级版主

高清币
17046
金钱
39535
鲜花
0
在线时间
12125 小时
最后登录
2019-9-16
发表于 2019-6-7 23:45:32 | 显示全部楼层 |阅读模式


◎译  名 吾乃母亲/AI终结战(台)  
◎片  名 I Am Mother/Mother
◎年  代 2019
◎产  地 澳大利亚
◎类  别 科幻/惊悚
◎语  言 英语
◎IMDb评分 6.3/10 from 212 users
◎IMDB链接 https://www.imdb.com/title/tt6292852/
◎片  长 1 h 53 min
◎导  演 格兰特·斯布托尔 Grant Sputore
◎主  演 克拉拉·卢嘉 Clara Rugaard
       萝丝·拜恩 Rose Byrne
       希拉里·斯万克 Hilary Swank
       Luke Hawker


◎简  介

  影片讲述一名少女在人类灭绝后,被一个用于构造生命让人类重现于地球、被称为“母亲”的机器人所创造,成为了新一代人类中的第一位,并且与“母亲”保持着独特的关系,然而一名受了伤的陌生人的到来使得这个关系受到动摇,让这名少女对于母亲告诉自己关于外面世界的一切以及母亲的意图产生了怀疑。

  1. Video
  2. ID : 1
  3. Format : AVC
  4. Format/Info : Advanced Video Codec
  5. Format profile : Main@L4
  6. Format settings : CABAC / 3 Ref Frames
  7. Format settings, CABAC : Yes
  8. Format settings, ReFrames : 3 frames
  9. Codec ID : V_MPEG4/ISO/AVC
  10. Duration : 1 h 53 min
  11. Bit rate mode : Variable
  12. Bit rate : 5 800 kb/s
  13. Maximum bit rate : 8 700 kb/s
  14. Width : 1 920 pixels
  15. Height : 1 080 pixels
  16. Display aspect ratio : 16:9
  17. Frame rate mode : Constant
  18. Frame rate : 24.000 FPS
  19. Color space : YUV
  20. Chroma subsampling : 4:2:0
  21. Bit depth : 8 bits
  22. Scan type : Progressive
  23. Bits/(Pixel*Frame) : 0.117
  24. Stream size : 4.56 GiB (90%)
  25. Writing library : x264 core 148 r2715 7e75228
  26. Encoding settings : cabac=1 / ref=3 / deblock=1:0:0 / analyse=0x1:0x111 / me=umh / subme=10 / psy=1 / psy_rd=1.00:0.00 / mixed_ref=1 / me_range=24 / chroma_me=1 / trellis=2 / 8x8dct=0 / cqm=0 / deadzone=21,11 / fast_pskip=1 / chroma_qp_offset=-2 / threads=6 / lookahead_threads=1 / sliced_threads=0 / nr=0 / decimate=1 / interlaced=0 / bluray_compat=0 / stitchable=1 / constrained_intra=0 / bframes=2 / b_pyramid=0 / b_adapt=2 / b_bias=0 / direct=3 / weightb=1 / open_gop=0 / weightp=2 / keyint=250 / keyint_min=24 / scenecut=0 / intra_refresh=0 / rc_lookahead=48 / rc=2pass / mbtree=1 / bitrate=5800 / ratetol=1.0 / qcomp=0.50 / qpmin=6 / qpmax=51 / qpstep=4 / cplxblur=20.0 / qblur=0.5 / vbv_maxrate=8700 / vbv_bufsize=11600 / nal_hrd=vbr / filler=0 / ip_ratio=1.40 / aq=1:1.00
  27. Default : Yes
  28. Forced : No

  29. Audio
  30. ID : 2
  31. Format : E-AC-3
  32. Format/Info : Enhanced AC-3
  33. Commercial name : Dolby Digital Plus
  34. Codec ID : A_EAC3
  35. Duration : 1 h 53 min
  36. Bit rate mode : Constant
  37. Bit rate : 640 kb/s
  38. Channel(s) : 6 channels
  39. Channel layout : L R C LFE Ls Rs
  40. Sampling rate : 48.0 kHz
  41. Frame rate : 31.250 FPS (1536 SPF)
  42. Compression mode : Lossy
  43. Stream size : 520 MiB (10%)
  44. Title : English
  45. Language : English
  46. Service kind : Complete Main
  47. Default : Yes
  48. Forced : No

  49. Text #1
  50. ID : 3
  51. Format : UTF-8
  52. Codec ID : S_TEXT/UTF8
  53. Codec ID/Info : UTF-8 Plain Text
  54. Duration : 1 h 42 min
  55. Bit rate : 36 b/s
  56. Count of elements : 912
  57. Stream size : 27.7 KiB (0%)
  58. Language : English
  59. Default : No
  60. Forced : No

  61. Text #2
  62. ID : 4
  63. Format : UTF-8
  64. Codec ID : S_TEXT/UTF8
  65. Codec ID/Info : UTF-8 Plain Text
  66. Duration : 1 h 45 min
  67. Bit rate : 42 b/s
  68. Count of elements : 1156
  69. Stream size : 32.7 KiB (0%)
  70. Title : SDH
  71. Language : English
  72. Default : No
  73. Forced : No

  74. Text #3
  75. ID : 5
  76. Format : UTF-8
  77. Codec ID : S_TEXT/UTF8
  78. Codec ID/Info : UTF-8 Plain Text
  79. Duration : 1 h 45 min
  80. Bit rate : 51 b/s
  81. Count of elements : 898
  82. Stream size : 39.4 KiB (0%)
  83. Language : Arabic
  84. Default : No
  85. Forced : No

  86. Text #4
  87. ID : 6
  88. Format : UTF-8
  89. Codec ID : S_TEXT/UTF8
  90. Codec ID/Info : UTF-8 Plain Text
  91. Duration : 1 h 45 min
  92. Bit rate : 32 b/s
  93. Count of elements : 897
  94. Stream size : 25.1 KiB (0%)
  95. Language : Czech
  96. Default : No
  97. Forced : No

  98. Text #5
  99. ID : 7
  100. Format : UTF-8
  101. Codec ID : S_TEXT/UTF8
  102. Codec ID/Info : UTF-8 Plain Text
  103. Duration : 1 h 44 min
  104. Bit rate : 33 b/s
  105. Count of elements : 898
  106. Stream size : 26.1 KiB (0%)
  107. Language : Danish
  108. Default : No
  109. Forced : No

  110. Text #6
  111. ID : 8
  112. Format : UTF-8
  113. Codec ID : S_TEXT/UTF8
  114. Codec ID/Info : UTF-8 Plain Text
  115. Duration : 1 h 45 min
  116. Bit rate : 51 b/s
  117. Count of elements : 889
  118. Stream size : 39.8 KiB (0%)
  119. Language : Greek
  120. Default : No
  121. Forced : No

  122. Text #7
  123. ID : 9
  124. Format : UTF-8
  125. Codec ID : S_TEXT/UTF8
  126. Codec ID/Info : UTF-8 Plain Text
  127. Duration : 1 h 44 min
  128. Bit rate : 33 b/s
  129. Count of elements : 885
  130. Stream size : 25.6 KiB (0%)
  131. Language : Spanish
  132. Default : No
  133. Forced : No

  134. Text #8
  135. ID : 10
  136. Format : UTF-8
  137. Codec ID : S_TEXT/UTF8
  138. Codec ID/Info : UTF-8 Plain Text
  139. Duration : 1 h 45 min
  140. Bit rate : 31 b/s
  141. Count of elements : 893
  142. Stream size : 23.9 KiB (0%)
  143. Title : European
  144. Language : Spanish
  145. Default : No
  146. Forced : No

  147. Text #9
  148. ID : 11
  149. Format : UTF-8
  150. Codec ID : S_TEXT/UTF8
  151. Codec ID/Info : UTF-8 Plain Text
  152. Duration : 1 h 45 min
  153. Bit rate : 29 b/s
  154. Count of elements : 896
  155. Stream size : 23.0 KiB (0%)
  156. Language : Finnish
  157. Default : No
  158. Forced : No

  159. Text #10
  160. ID : 12
  161. Format : UTF-8
  162. Codec ID : S_TEXT/UTF8
  163. Codec ID/Info : UTF-8 Plain Text
  164. Duration : 1 h 45 min
  165. Bit rate : 32 b/s
  166. Count of elements : 864
  167. Stream size : 25.1 KiB (0%)
  168. Language : French
  169. Default : No
  170. Forced : No

  171. Text #11
  172. ID : 13
  173. Format : UTF-8
  174. Codec ID : S_TEXT/UTF8
  175. Codec ID/Info : UTF-8 Plain Text
  176. Duration : 1 h 45 min
  177. Bit rate : 48 b/s
  178. Count of elements : 889
  179. Stream size : 37.0 KiB (0%)
  180. Language : Hebrew
  181. Default : No
  182. Forced : No

  183. Text #12
  184. ID : 14
  185. Format : UTF-8
  186. Codec ID : S_TEXT/UTF8
  187. Codec ID/Info : UTF-8 Plain Text
  188. Duration : 1 h 45 min
  189. Bit rate : 33 b/s
  190. Count of elements : 860
  191. Stream size : 25.8 KiB (0%)
  192. Language : Hungarian
  193. Default : No
  194. Forced : No

  195. Text #13
  196. ID : 15
  197. Format : UTF-8
  198. Codec ID : S_TEXT/UTF8
  199. Codec ID/Info : UTF-8 Plain Text
  200. Duration : 1 h 45 min
  201. Bit rate : 30 b/s
  202. Count of elements : 890
  203. Stream size : 23.6 KiB (0%)
  204. Language : Italian
  205. Default : No
  206. Forced : No

  207. Text #14
  208. ID : 16
  209. Format : UTF-8
  210. Codec ID : S_TEXT/UTF8
  211. Codec ID/Info : UTF-8 Plain Text
  212. Duration : 1 h 45 min
  213. Bit rate : 27 b/s
  214. Count of elements : 908
  215. Stream size : 21.1 KiB (0%)
  216. Language : Japanese
  217. Default : No
  218. Forced : No

  219. Text #15
  220. ID : 17
  221. Format : UTF-8
  222. Codec ID : S_TEXT/UTF8
  223. Codec ID/Info : UTF-8 Plain Text
  224. Duration : 1 h 45 min
  225. Bit rate : 38 b/s
  226. Count of elements : 894
  227. Stream size : 29.5 KiB (0%)
  228. Language : Korean
  229. Default : No
  230. Forced : No

  231. Text #16
  232. ID : 18
  233. Format : UTF-8
  234. Codec ID : S_TEXT/UTF8
  235. Codec ID/Info : UTF-8 Plain Text
  236. Duration : 1 h 45 min
  237. Bit rate : 30 b/s
  238. Count of elements : 899
  239. Stream size : 23.5 KiB (0%)
  240. Language : Norwegian Bokmal
  241. Default : No
  242. Forced : No

  243. Text #17
  244. ID : 19
  245. Format : UTF-8
  246. Codec ID : S_TEXT/UTF8
  247. Codec ID/Info : UTF-8 Plain Text
  248. Duration : 1 h 44 min
  249. Bit rate : 28 b/s
  250. Count of elements : 826
  251. Stream size : 22.1 KiB (0%)
  252. Language : Dutch
  253. Default : No
  254. Forced : No

  255. Text #18
  256. ID : 20
  257. Format : UTF-8
  258. Codec ID : S_TEXT/UTF8
  259. Codec ID/Info : UTF-8 Plain Text
  260. Duration : 1 h 46 min
  261. Bit rate : 28 b/s
  262. Count of elements : 845
  263. Stream size : 22.3 KiB (0%)
  264. Language : Polish
  265. Default : No
  266. Forced : No

  267. Text #19
  268. ID : 21
  269. Format : UTF-8
  270. Codec ID : S_TEXT/UTF8
  271. Codec ID/Info : UTF-8 Plain Text
  272. Duration : 1 h 44 min
  273. Bit rate : 33 b/s
  274. Count of elements : 886
  275. Stream size : 26.1 KiB (0%)
  276. Language : Portuguese
  277. Default : No
  278. Forced : No

  279. Text #20
  280. ID : 22
  281. Format : UTF-8
  282. Codec ID : S_TEXT/UTF8
  283. Codec ID/Info : UTF-8 Plain Text
  284. Duration : 1 h 45 min
  285. Bit rate : 31 b/s
  286. Count of elements : 887
  287. Stream size : 24.2 KiB (0%)
  288. Title : Brazilian
  289. Language : Portuguese
  290. Default : No
  291. Forced : No

  292. Text #21
  293. ID : 23
  294. Format : UTF-8
  295. Codec ID : S_TEXT/UTF8
  296. Codec ID/Info : UTF-8 Plain Text
  297. Duration : 1 h 45 min
  298. Bit rate : 39 b/s
  299. Count of elements : 898
  300. Stream size : 30.7 KiB (0%)
  301. Language : Romanian
  302. Default : No
  303. Forced : No

  304. Text #22
  305. ID : 24
  306. Format : UTF-8
  307. Codec ID : S_TEXT/UTF8
  308. Codec ID/Info : UTF-8 Plain Text
  309. Duration : 1 h 45 min
  310. Bit rate : 29 b/s
  311. Count of elements : 775
  312. Stream size : 22.7 KiB (0%)
  313. Language : Swedish
  314. Default : No
  315. Forced : No

  316. Text #23
  317. ID : 25
  318. Format : UTF-8
  319. Codec ID : S_TEXT/UTF8
  320. Codec ID/Info : UTF-8 Plain Text
  321. Duration : 1 h 45 min
  322. Bit rate : 80 b/s
  323. Count of elements : 896
  324. Stream size : 61.9 KiB (0%)
  325. Language : Thai
  326. Default : No
  327. Forced : No

  328. Text #24
  329. ID : 26
  330. Format : UTF-8
  331. Codec ID : S_TEXT/UTF8
  332. Codec ID/Info : UTF-8 Plain Text
  333. Duration : 1 h 45 min
  334. Bit rate : 32 b/s
  335. Count of elements : 899
  336. Stream size : 25.3 KiB (0%)
  337. Language : Turkish
  338. Default : No
  339. Forced : No

  340. Text #25
  341. ID : 27
  342. Format : UTF-8
  343. Codec ID : S_TEXT/UTF8
  344. Codec ID/Info : UTF-8 Plain Text
  345. Duration : 1 h 45 min
  346. Bit rate : 46 b/s
  347. Count of elements : 899
  348. Stream size : 36.1 KiB (0%)
  349. Language : Vietnamese
  350. Default : No
  351. Forced : No

  352. Text #26
  353. ID : 28
  354. Format : UTF-8
  355. Codec ID : S_TEXT/UTF8
  356. Codec ID/Info : UTF-8 Plain Text
  357. Duration : 1 h 45 min
  358. Bit rate : 32 b/s
  359. Count of elements : 899
  360. Stream size : 25.1 KiB (0%)
  361. Title : Simplified
  362. Language : Chinese
  363. Default : No
  364. Forced : No

  365. Text #27
  366. ID : 29
  367. Format : UTF-8
  368. Codec ID : S_TEXT/UTF8
  369. Codec ID/Info : UTF-8 Plain Text
  370. Duration : 1 h 45 min
  371. Bit rate : 29 b/s
  372. Count of elements : 895
  373. Stream size : 22.5 KiB (0%)
  374. Title : Traditional
  375. Language : Chinese
  376. Default : No
  377. Forced : No
复制代码








游客,如果您要查看本帖隐藏内容请回复,您还可以免扣高清币免回复下载:https://www.85lou.com/plugin.php?id=wyfaka_url:url
回复

使用道具 举报

superstar

高清币
2874
金钱
12860
鲜花
0
在线时间
1522 小时
最后登录
2019-9-16
发表于 2019-6-8 00:03:29 | 显示全部楼层

其实我一直觉得楼主的品味不错!呵呵!中国高清论坛太棒了!
回复 支持 1 反对 0

使用道具 举报

超级明星

高清币
11
金钱
9087
鲜花
0
在线时间
4341 小时
最后登录
2019-9-16
发表于 2019-6-7 23:54:41 | 显示全部楼层

这个帖子不回对不起自己!我想我是一天也不能离开中国高清论坛
回复 支持 1 反对 0

使用道具 举报

人气偶像

高清币
92
金钱
679
鲜花
0
在线时间
460 小时
最后登录
2019-9-16
发表于 2019-6-7 23:53:44 | 显示全部楼层
感謝分享這電影
回复 支持 1 反对 0

使用道具 举报

superstar

高清币
3468
金钱
14732
鲜花
0
在线时间
2802 小时
最后登录
2019-9-16
发表于 2019-6-8 00:04:19 | 显示全部楼层

这个帖子不回对不起自己!我想我是一天也不能离开中国高清论坛
回复 支持 反对

使用道具 举报

好莱坞明星

高清币
798
金钱
6682
鲜花
0
在线时间
1328 小时
最后登录
2019-9-15
发表于 2019-6-8 00:07:31 | 显示全部楼层
楼主发贴辛苦了,谢谢楼主分享!
回复 支持 反对

使用道具 举报

知名艺人

高清币
76
金钱
217
鲜花
0
在线时间
36 小时
最后登录
2019-9-16
发表于 2019-6-8 00:08:06 | 显示全部楼层

楼主太厉害了!楼主,电影应该很好看我觉得中国高清论坛真是个好地方!
回复 支持 反对

使用道具 举报

超级明星

高清币
518
金钱
9370
鲜花
0
在线时间
903 小时
最后登录
2019-9-16
发表于 2019-6-8 00:08:30 | 显示全部楼层
楼主发贴辛苦了,谢谢楼主分享!我觉得中国高清论坛是注册对了!
回复 支持 反对

使用道具 举报

superstar

高清币
4054
金钱
14293
鲜花
0
在线时间
1710 小时
最后登录
2019-9-16
发表于 2019-6-8 00:09:38 | 显示全部楼层
楼主发贴辛苦了,谢谢楼主分享!我觉得中国高清论坛是注册对了!
回复 支持 反对

使用道具 举报

superstar

高清币
3885
金钱
12499
鲜花
0
在线时间
3765 小时
最后登录
2019-9-16
发表于 2019-6-8 00:12:24 | 显示全部楼层

这东西我收了!谢谢楼主!中国高清论坛真好!
回复 支持 反对

使用道具 举报

懒得打字嘛,点击右侧快捷回复 【右侧内容,后台自定义】
您需要登录后才可以回帖 登录 | 立即注册

本版积分规则

QQ|手机版|小黑屋|中国高清论坛 ( 黔ICP备16007815号-1 )

GMT+8, 2019-9-16 20:09 , Processed in 0.061324 second(s), 27 queries .

Powered by Discuz! X3.4

© 2001-2017 Comsenz Inc.

快速回复 返回顶部 返回列表