请选择 进入手机版 | 继续访问电脑版

中国高清论坛

 找回密码
 立即注册
搜索
查看: 6167|回复: 1129

[动作片] 恶霸警察 [繁简中文字幕] Bad.Police.2019.NF.WEB-DL.1080p-Unknown 4.69 GiB

  [复制链接]

超级版主

高清币
17046
金钱
39535
鲜花
0
在线时间
12125 小时
最后登录
2019-9-16
发表于 2019-6-8 08:30:31 | 显示全部楼层 |阅读模式


◎译  名 坏警察/恶霸警察
◎片  名 Jo Pil-ho: The Dawning Rage
◎年  代 2019
◎国  家 韩国
◎类  别 动作
◎语  言 韩语
◎IMDb评分 6.2/10 from 162 users
◎IMDb链接 https://www.imdb.com/title/tt7738048/
◎片  长 2 h 7 min
◎导  演 李桢凡 Jeong-beom Lee
◎主  演 李善均 Seon-gyun Lee
       全素妮 Jeon So-nee
       朴海俊 Hea-jun Park
       宋永彰 Young-chang Song



◎简  介

  影片讲述了坏警察与邪恶黑暗的社会对抗的故事。
  1. General
  2. Unique ID : 187703926004601293897874665589633668824 (0x8D36760FB4564763B2435FF9A2E356D8)
  3. Complete name : Bad.Police.2019.NF.WEB-DL.1080p.mkv
  4. Format : Matroska
  5. Format version : Version 4
  6. File size : 4.69 GiB
  7. Duration : 2 h 7 min
  8. Overall bit rate mode : Variable
  9. Overall bit rate : 5 254 kb/s
  10. Encoded date : UTC 2019-06-07 07:10:10
  11. Writing application : mkvmerge v7.1.0 ('Good Love') 64bit built on Jul 27 2014 13:06:55
  12. Writing library : libebml v1.3.0 + libmatroska v1.4.1

  13. Video
  14. ID : 1
  15. Format : AVC
  16. Format/Info : Advanced Video Codec
  17. Format profile : High@L4
  18. Format settings : CABAC / 4 Ref Frames
  19. Format settings, CABAC : Yes
  20. Format settings, Reference fra : 4 frames
  21. Codec ID : V_MPEG4/ISO/AVC
  22. Duration : 2 h 7 min
  23. Bit rate mode : Variable
  24. Bit rate : 4 355 kb/s
  25. Maximum bit rate : 20.0 Mb/s
  26. Width : 1 920 pixels
  27. Height : 1 080 pixels
  28. Display aspect ratio : 16:9
  29. Frame rate mode : Constant
  30. Frame rate : 23.976 (24000/1001) FPS
  31. Color space : YUV
  32. Chroma subsampling : 4:2:0
  33. Bit depth : 8 bits
  34. Scan type : Progressive
  35. Bits/(Pixel*Frame) : 0.088
  36. Stream size : 3.89 GiB (83%)
  37. Writing library : x264 core 148 r2715 7e75228
  38. Encoding settings : cabac=1 / ref=4 / deblock=1:0:0 / analyse=0x3:0x111 / me=umh / subme=10 / psy=1 / psy_rd=1.00:0.00 / mixed_ref=1 / me_range=120 / chroma_me=1 / trellis=2 / 8x8dct=1 / cqm=0 / deadzone=21,11 / fast_pskip=1 / chroma_qp_offset=-2 / threads=8 / lookahead_threads=2 / sliced_threads=0 / nr=0 / decimate=1 / interlaced=0 / bluray_compat=0 / stitchable=1 / constrained_intra=0 / bframes=16 / b_pyramid=2 / b_adapt=2 / b_bias=0 / direct=3 / weightb=1 / open_gop=0 / weightp=2 / keyint=240 / keyint_min=121 / scenecut=0 / intra_refresh=0 / rc_lookahead=240 / rc=crf / mbtree=1 / crf=16.0 / qcomp=0.50 / qpmin=6 / qpmax=51 / qpstep=4 / vbv_maxrate=20000 / vbv_bufsize=25000 / crf_max=0.0 / nal_hrd=vbr / filler=0 / ip_ratio=1.40 / aq=1:0.80
  39. Language : Korean
  40. Default : Yes
  41. Forced : No

  42. Audio #1
  43. ID : 2
  44. Format : AC-3
  45. Format/Info : Audio Coding 3
  46. Commercial name : Dolby Digital
  47. Codec ID : A_AC3
  48. Duration : 2 h 7 min
  49. Bit rate mode : Constant
  50. Bit rate : 256 kb/s
  51. Channel(s) : 2 channels
  52. Channel layout : L R
  53. Sampling rate : 48.0 kHz
  54. Frame rate : 31.250 FPS (1536 SPF)
  55. Bit depth : 16 bits
  56. Compression mode : Lossy
  57. Stream size : 234 MiB (5%)
  58. Title : LakeFilms
  59. Language : Russian
  60. Service kind : Complete Main
  61. Default : Yes
  62. Forced : No

  63. Audio #2
  64. ID : 3
  65. Format : E-AC-3
  66. Format/Info : Enhanced AC-3
  67. Commercial name : Dolby Digital Plus
  68. Codec ID : A_EAC3
  69. Duration : 2 h 7 min
  70. Bit rate mode : Constant
  71. Bit rate : 640 kb/s
  72. Channel(s) : 6 channels
  73. Channel layout : L R C LFE Ls Rs
  74. Sampling rate : 48.0 kHz
  75. Frame rate : 31.250 FPS (1536 SPF)
  76. Compression mode : Lossy
  77. Stream size : 585 MiB (12%)
  78. Title : Korean
  79. Language : Korean
  80. Service kind : Complete Main
  81. Default : No
  82. Forced : No

  83. Text #1
  84. ID : 4
  85. Format : UTF-8
  86. Codec ID : S_TEXT/UTF8
  87. Codec ID/Info : UTF-8 Plain Text
  88. Duration : 2 h 1 min
  89. Bit rate : 64 b/s
  90. Count of elements : 1291
  91. Stream size : 57.5 KiB (0%)
  92. Language : Russian
  93. Default : No
  94. Forced : No

  95. Text #2
  96. ID : 5
  97. Format : UTF-8
  98. Codec ID : S_TEXT/UTF8
  99. Codec ID/Info : UTF-8 Plain Text
  100. Duration : 2 h 1 min
  101. Bit rate : 41 b/s
  102. Count of elements : 1285
  103. Stream size : 37.0 KiB (0%)
  104. Language : English
  105. Default : No
  106. Forced : No

  107. Text #3
  108. ID : 6
  109. Format : UTF-8
  110. Codec ID : S_TEXT/UTF8
  111. Codec ID/Info : UTF-8 Plain Text
  112. Duration : 2 h 1 min
  113. Bit rate : 45 b/s
  114. Count of elements : 1293
  115. Stream size : 40.7 KiB (0%)
  116. Language : German
  117. Default : No
  118. Forced : No

  119. Text #4
  120. ID : 7
  121. Format : UTF-8
  122. Codec ID : S_TEXT/UTF8
  123. Codec ID/Info : UTF-8 Plain Text
  124. Duration : 2 h 1 min
  125. Bit rate : 44 b/s
  126. Count of elements : 1292
  127. Stream size : 39.7 KiB (0%)
  128. Language : French
  129. Default : No
  130. Forced : No

  131. Text #5
  132. ID : 8
  133. Format : UTF-8
  134. Codec ID : S_TEXT/UTF8
  135. Codec ID/Info : UTF-8 Plain Text
  136. Duration : 2 h 1 min
  137. Bit rate : 40 b/s
  138. Count of elements : 1294
  139. Stream size : 36.3 KiB (0%)
  140. Language : Italian
  141. Default : No
  142. Forced : No

  143. Text #6
  144. ID : 9
  145. Format : UTF-8
  146. Codec ID : S_TEXT/UTF8
  147. Codec ID/Info : UTF-8 Plain Text
  148. Duration : 2 h 1 min
  149. Bit rate : 43 b/s
  150. Count of elements : 1290
  151. Stream size : 38.7 KiB (0%)
  152. Language : Portuguese
  153. Default : No
  154. Forced : No

  155. Text #7
  156. ID : 10
  157. Format : UTF-8
  158. Codec ID : S_TEXT/UTF8
  159. Codec ID/Info : UTF-8 Plain Text
  160. Duration : 2 h 1 min
  161. Bit rate : 42 b/s
  162. Count of elements : 1290
  163. Stream size : 38.1 KiB (0%)
  164. Title : European
  165. Language : Spanish
  166. Default : No
  167. Forced : No

  168. Text #8
  169. ID : 11
  170. Format : UTF-8
  171. Codec ID : S_TEXT/UTF8
  172. Codec ID/Info : UTF-8 Plain Text
  173. Duration : 2 h 1 min
  174. Bit rate : 50 b/s
  175. Count of elements : 1723
  176. Stream size : 44.9 KiB (0%)
  177. Language : Czech
  178. Default : No
  179. Forced : No

  180. Text #9
  181. ID : 12
  182. Format : UTF-8
  183. Codec ID : S_TEXT/UTF8
  184. Codec ID/Info : UTF-8 Plain Text
  185. Duration : 2 h 1 min
  186. Bit rate : 69 b/s
  187. Count of elements : 1290
  188. Stream size : 62.1 KiB (0%)
  189. Language : Greek
  190. Default : No
  191. Forced : No

  192. Text #10
  193. ID : 13
  194. Format : UTF-8
  195. Codec ID : S_TEXT/UTF8
  196. Codec ID/Info : UTF-8 Plain Text
  197. Duration : 2 h 1 min
  198. Bit rate : 40 b/s
  199. Count of elements : 1290
  200. Stream size : 35.8 KiB (0%)
  201. Language : Finnish
  202. Default : No
  203. Forced : No

  204. Text #11
  205. ID : 14
  206. Format : UTF-8
  207. Codec ID : S_TEXT/UTF8
  208. Codec ID/Info : UTF-8 Plain Text
  209. Duration : 2 h 1 min
  210. Bit rate : 60 b/s
  211. Count of elements : 1294
  212. Stream size : 53.6 KiB (0%)
  213. Language : Hebrew
  214. Default : No
  215. Forced : No

  216. Text #12
  217. ID : 15
  218. Format : UTF-8
  219. Codec ID : S_TEXT/UTF8
  220. Codec ID/Info : UTF-8 Plain Text
  221. Duration : 2 h 1 min
  222. Bit rate : 49 b/s
  223. Count of elements : 1723
  224. Stream size : 43.8 KiB (0%)
  225. Language : Hungarian
  226. Default : No
  227. Forced : No

  228. Text #13
  229. ID : 16
  230. Format : UTF-8
  231. Codec ID : S_TEXT/UTF8
  232. Codec ID/Info : UTF-8 Plain Text
  233. Duration : 2 h 1 min
  234. Bit rate : 49 b/s
  235. Count of elements : 1723
  236. Stream size : 44.4 KiB (0%)
  237. Language : Indonesian
  238. Default : No
  239. Forced : No

  240. Text #14
  241. ID : 17
  242. Format : UTF-8
  243. Codec ID : S_TEXT/UTF8
  244. Codec ID/Info : UTF-8 Plain Text
  245. Duration : 2 h 1 min
  246. Bit rate : 43 b/s
  247. Count of elements : 1430
  248. Stream size : 38.5 KiB (0%)
  249. Language : Japanese
  250. Default : No
  251. Forced : No

  252. Text #15
  253. ID : 18
  254. Format : UTF-8
  255. Codec ID : S_TEXT/UTF8
  256. Codec ID/Info : UTF-8 Plain Text
  257. Duration : 2 h 0 min
  258. Bit rate : 64 b/s
  259. Count of elements : 1278
  260. Stream size : 56.8 KiB (0%)
  261. Language : Korean
  262. Default : No
  263. Forced : No

  264. Text #16
  265. ID : 19
  266. Format : UTF-8
  267. Codec ID : S_TEXT/UTF8
  268. Codec ID/Info : UTF-8 Plain Text
  269. Duration : 2 h 2 min
  270. Bit rate : 68 b/s
  271. Count of elements : 1449
  272. Stream size : 61.7 KiB (0%)
  273. Title : SDH
  274. Language : Korean
  275. Default : No
  276. Forced : No

  277. Text #17
  278. ID : 20
  279. Format : UTF-8
  280. Codec ID : S_TEXT/UTF8
  281. Codec ID/Info : UTF-8 Plain Text
  282. Duration : 2 h 1 min
  283. Bit rate : 40 b/s
  284. Count of elements : 1291
  285. Stream size : 35.9 KiB (0%)
  286. Language : Norwegian Bokmal
  287. Default : No
  288. Forced : No

  289. Text #18
  290. ID : 21
  291. Format : UTF-8
  292. Codec ID : S_TEXT/UTF8
  293. Codec ID/Info : UTF-8 Plain Text
  294. Duration : 2 h 1 min
  295. Bit rate : 38 b/s
  296. Count of elements : 1279
  297. Stream size : 34.4 KiB (0%)
  298. Language : Polish
  299. Default : No
  300. Forced : No

  301. Text #19
  302. ID : 22
  303. Format : UTF-8
  304. Codec ID : S_TEXT/UTF8
  305. Codec ID/Info : UTF-8 Plain Text
  306. Duration : 2 h 1 min
  307. Bit rate : 46 b/s
  308. Count of elements : 1291
  309. Stream size : 41.6 KiB (0%)
  310. Language : Romanian
  311. Default : No
  312. Forced : No

  313. Text #20
  314. ID : 23
  315. Format : UTF-8
  316. Codec ID : S_TEXT/UTF8
  317. Codec ID/Info : UTF-8 Plain Text
  318. Duration : 2 h 1 min
  319. Bit rate : 41 b/s
  320. Count of elements : 1293
  321. Stream size : 36.9 KiB (0%)
  322. Language : Swedish
  323. Default : No
  324. Forced : No

  325. Text #21
  326. ID : 24
  327. Format : UTF-8
  328. Codec ID : S_TEXT/UTF8
  329. Codec ID/Info : UTF-8 Plain Text
  330. Duration : 2 h 1 min
  331. Bit rate : 43 b/s
  332. Count of elements : 1291
  333. Stream size : 39.0 KiB (0%)
  334. Language : Turkish
  335. Default : No
  336. Forced : No

  337. Text #22
  338. ID : 25
  339. Format : UTF-8
  340. Codec ID : S_TEXT/UTF8
  341. Codec ID/Info : UTF-8 Plain Text
  342. Duration : 2 h 1 min
  343. Bit rate : 44 b/s
  344. Count of elements : 1294
  345. Stream size : 39.2 KiB (0%)
  346. Title : Simplified
  347. Language : Chinese
  348. Default : No
  349. Forced : No

  350. Text #23
  351. ID : 26
  352. Format : UTF-8
  353. Codec ID : S_TEXT/UTF8
  354. Codec ID/Info : UTF-8 Plain Text
  355. Duration : 2 h 1 min
  356. Bit rate : 41 b/s
  357. Count of elements : 1289
  358. Stream size : 36.8 KiB (0%)
  359. Title : Traditional
  360. Language : Chinese
  361. Default : No
  362. Forced : No
复制代码

游客,如果您要查看本帖隐藏内容请回复,您还可以免扣高清币免回复下载:https://www.85lou.com/plugin.php?id=wyfaka_url:url

评分

参与人数 1鲜花 +88 收起 理由
冷夜 + 88 赞一个!

查看全部评分

回复

使用道具 举报

影坛巨星

高清币
3265
金钱
6160
鲜花
0
在线时间
1629 小时
最后登录
2019-7-29
发表于 2019-6-8 08:35:36 | 显示全部楼层
楼主发贴辛苦了,谢谢楼主分享!我觉得中国高清论坛是注册对了!
回复 支持 1 反对 0

使用道具 举报

金鸡奖主角

高清币
2164
金钱
2623
鲜花
0
在线时间
92 小时
最后登录
2019-8-19
发表于 2019-6-8 08:34:51 | 显示全部楼层
你咋不理我了呢
回复 支持 1 反对 0

使用道具 举报

影坛巨星

高清币
3265
金钱
6160
鲜花
0
在线时间
1629 小时
最后登录
2019-7-29
发表于 2019-6-8 08:34:49 | 显示全部楼层
楼主发贴辛苦了,谢谢楼主分享!我觉得中国高清论坛是注册对了!
回复 支持 1 反对 0

使用道具 举报

永恒神话

高清币
10998
金钱
16788
鲜花
0
在线时间
1124 小时
最后登录
2019-9-16
发表于 2019-6-8 08:31:57 | 显示全部楼层
楼主发贴辛苦了,谢谢楼主分享!我觉得中国高清论坛是注册对了!
回复 支持 1 反对 0

使用道具 举报

金鸡奖主角

高清币
512
金钱
4181
鲜花
0
在线时间
945 小时
最后登录
2019-9-15
发表于 2019-6-13 22:32:05 | 显示全部楼层

感谢楼主的无私分享!
回复 支持 1 反对 0

使用道具 举报

人气偶像

高清币
31
金钱
1333
鲜花
0
在线时间
306 小时
最后登录
2019-9-15
发表于 2019-6-13 22:22:38 | 显示全部楼层

既然你诚信诚意的推荐了,那我就勉为其难的看看吧!中国高清论坛不走平凡路。
回复 支持 1 反对 0

使用道具 举报

天王巨星

高清币
8
金钱
3019
鲜花
0
在线时间
434 小时
最后登录
2019-9-16
发表于 2019-6-13 21:55:15 | 显示全部楼层
謝謝分享,小弟感激不盡
回复 支持 1 反对 0

使用道具 举报

永恒神话

高清币
13511
金钱
21921
鲜花
0
在线时间
2500 小时
最后登录
2019-9-16
发表于 2019-6-8 08:35:42 | 显示全部楼层
楼主发贴辛苦了,谢谢楼主分享!我觉得中国高清论坛是注册对了!
回复 支持 反对

使用道具 举报

永恒神话

高清币
6610
金钱
17708
鲜花
0
在线时间
1220 小时
最后登录
2019-9-16
发表于 2019-6-8 08:39:02 | 显示全部楼层
非常感谢超级版主每天分享这么多精彩资源!
回复 支持 反对

使用道具 举报

天王巨星

高清币
80
金钱
2100
鲜花
0
在线时间
544 小时
最后登录
2019-9-15
发表于 2019-6-8 08:47:38 | 显示全部楼层
感谢楼主发片
回复 支持 反对

使用道具 举报

天王巨星

高清币
814
金钱
1233
鲜花
0
在线时间
241 小时
最后登录
2019-9-16
发表于 2019-6-8 08:47:48 | 显示全部楼层
在最好的时机遇到你,才算没有辜负自己。
回复 支持 反对

使用道具 举报

金鸡奖主角

高清币
1823
金钱
3757
鲜花
0
在线时间
504 小时
最后登录
2019-9-16
发表于 2019-6-8 08:48:36 | 显示全部楼层
楼主发贴辛苦了,谢谢楼主分享!我觉得中国高清论坛是注册对了!
回复 支持 反对

使用道具 举报

懒得打字嘛,点击右侧快捷回复 【右侧内容,后台自定义】
您需要登录后才可以回帖 登录 | 立即注册

本版积分规则

QQ|手机版|小黑屋|中国高清论坛 ( 黔ICP备16007815号-1 )

GMT+8, 2019-9-16 20:19 , Processed in 0.068830 second(s), 30 queries .

Powered by Discuz! X3.4

© 2001-2017 Comsenz Inc.

快速回复 返回顶部 返回列表