请选择 进入手机版 | 继续访问电脑版

中国高清论坛

 找回密码
 立即注册
搜索
查看: 1294|回复: 230

[REMUX] 一个巨星的诞生[中字]2018.1080p.BluRay.REMUX.AVC.DTS-HD.TrueHD.7.1 34.09 GB

  [复制链接]

龙行天下

高清币
36122
金钱
8779
鲜花
50
在线时间
1992 小时
最后登录
2019-6-24
发表于 2019-6-9 11:33:46 | 显示全部楼层 |阅读模式


◎译  名 一个明星的诞生 / 一个巨星的诞生(台) / 星梦情深(港)
◎片  名 A Star Is Born
◎年  代 2018
◎产  地 美国
◎类  别 剧情 / 爱情 / 音乐
◎语  言 英语
◎上映日期 2018-08-31(威尼斯电影节) / 2018-10-05(美国)
◎IMDb评分 7.8/10 from 246619 users
◎IMDb链接 http://www.imdb.com/title/tt1517451
◎豆瓣评分 7.2/10 from 69515 users
◎豆瓣链接 https://movie.douban.com/subject/4058933/
◎片  长 135分钟
◎导  演 布莱德利·库珀 Bradley Cooper
◎编  剧 艾瑞克·罗斯 Eric Roth / 布莱德利·库珀 Bradley Cooper / 威尔·法特斯 Will Fetters / 莫斯·哈特 Moss Hart / 约翰·格列高利·邓恩 John Gregory Dunne / 琼·迪丹 Joan Didion / 弗兰克·皮尔森 Frank Pierson / 威廉·A·韦尔曼 William A. Wellman / 罗伯特·卡森 Robert Carson
◎主  演 Lady Gaga
      布莱德利·库珀 Bradley Cooper
      山姆·艾里奥特 Sam Elliott
      安德鲁·戴斯·克雷 Andrew Dice Clay
      拉菲·格拉沃恩 Rafi Gavron
      安东尼·拉莫斯 Anthony Ramos
      大卫·查普尔 Dave Chappelle
      亚历克·鲍德温 Alec Baldwin
      Marlon Williams
      布兰迪·卡莉 Brandi Carlile
      朗·瑞弗金 Ron Rifkin
      巴里·沙巴卡·亨利 Barry Shabaka Henley
      迈克尔·D·罗伯茨 Michael D. Roberts
      迈克尔·哈尔尼 Michael Harney
      Rebecca Field
      威廉·贝利 Willam Belli
      格雷戈·格伦伯格 Greg Grunberg
      D.J. 'Shangela' Pierce
      德瑞娜·德尼罗 Drena De Niro
      艾迪·格里芬 Eddie Griffin
      哈尔希 Halsey
      马修·利巴提克 Matthew Libatique
      路奈尔·坎贝尔 Luenell Campell
      Don Was
      Lenny Castro
      唐·罗伊·金 Don Roy King
      Gregory Scarnici
      Frank Anello
      Germano Blanco
      Megan Haun
      马克·查普曼 Mark G. Chapman
      Steven Ciceron
      阿曼达·菲尔茨 Amanda Fields
      阿尔弗雷德·加比杜林 Alfred Gabidullin
      弗雷德里克·基夫 Frederick Keeve


◎标  签 音乐 | 爱情 | 美国 | 2018 | 剧情 | 歌舞 | 传记 | 翻拍

◎简  介

  在这个全新诠释的悲剧爱情故事中,乡村音乐家杰克·梅恩(布莱德利·库珀 饰)发掘了正在努力熬出头的服务员艾莉(Lady Gaga 饰),当时她正要放弃成为歌手的梦想时,杰克说动她进入演艺界,也在共事的过程中爱上她。不久艾莉的事业起飞,但杰克却克服不了他由来已久的心魔,使两人的关系开始崩裂……
本片是布莱德利·库珀生平第一次自编、自导、自演,并担任制片,挑战从来没有尝试过的现场演唱与音乐创作的电影。也是Lady Gaga首次挑战大银幕。其在影片中演唱的这些歌曲是由她跟布莱德利·库珀,还有几位艺人一起创作的。所有音乐都是原创和现场录音。

◎获奖情况

  第91届奥斯卡金像奖(2019)
  最佳影片(提名)
  最佳男主角(提名) 布莱德利·库珀
  最佳女主角(提名) Lady Gaga
  最佳男配角(提名) 山姆·艾里奥特
  最佳改编剧本(提名) 艾瑞克·罗斯 / 威尔·法特斯 / 布莱德利·库珀
  最佳摄影(提名) 马修·利巴提克
  最佳混音(提名) 杰森·鲁德 / 迪恩·A·祖潘西奇 / 史蒂文·莫罗 / 汤姆·欧扎尼奇
  最佳原创歌曲 Lady Gaga / 马克·容森 / 安东尼·罗索曼多 / 安德鲁·怀亚特

  第76届金球奖(2019)
  电影类 最佳剧情片(提名)
  电影类 最佳导演(提名) 布莱德利·库珀
  电影类 剧情片最佳男主角(提名) 布莱德利·库珀
  电影类 剧情片最佳女主角(提名) Lady Gaga
  电影类 最佳原创歌曲 Lady Gaga

  第72届英国电影学院奖(2019)
  电影奖 最佳影片(提名)
  电影奖 最佳导演(提名) 布莱德利·库珀
  电影奖 最佳男主角(提名) 布莱德利·库珀
  电影奖 最佳女主角(提名) Lady Gaga
  电影奖 最佳改编剧本(提名) 艾瑞克·罗斯 / 威尔·法特斯 / 布莱德利·库珀
  电影奖 最佳原创音乐 Lady Gaga / 布莱德利·库珀 / Lukas Nelson
  电影奖 最佳音效(提名)

  第61届日本电影蓝丝带奖(2019)
  年度十佳海外影片

  第71届美国导演工会奖(2019)
  最佳电影导演(提名) 布莱德利·库珀
  最佳新人导演奖(提名) 布莱德利·库珀

  第25届美国演员工会奖(2019)
  电影奖 最佳男主角(提名) 布莱德利·库珀
  电影奖 最佳女主角(提名) Lady Gaga
  电影奖 最佳男配角(提名) 山姆·艾里奥特
  电影奖 最佳群戏(提名)

  第71届美国编剧工会奖(2019)
  电影奖 最佳改编剧本(提名) 艾瑞克·罗斯 / 威尔·法特斯 / 布莱德利·库珀

  第30届美国制片人工会奖(2019)
  最佳电影制片人奖(提名)

  第33届美国摄影协会奖(2019)
  电影长片最佳摄影(提名) 马修·利巴提克

  第69届美国剪辑工会奖(2019)
  剧情片最佳剪辑(提名) 杰伊·卡西迪

  第23届美国艺术指导工会奖(2019)
  电影奖 最佳当代电影艺术指导(提名) 凯伦·墨菲

  第21届美国服装设计工会奖(2019)
  现代电影最佳服装设计(提名) 埃林·贝纳赫

  第6届美国化妆及发型设计工会奖(2019)
  电影类最佳现代戏化妆
  电影类最佳现代戏发型设计(提名)

  第66届美国音效剪辑协会奖(2019)
  金卷轴奖 最佳电影对白剪辑(提名)
  金卷轴奖 最佳音乐片音乐剪辑(提名)

  第55届美国声音效果协会奖(2019)
  真人电影最佳音效(提名)

  第90届美国国家评论协会奖(2018)
  最佳导演 布莱德利·库珀
  最佳女主角 Lady Gaga
  最佳男配角 山姆·艾里奥特
  年度佳片

  第24届美国评论家选择电影奖(2019)
  最佳影片(提名)
  最佳导演(提名) 布莱德利·库珀
  最佳男主角(提名) 布莱德利·库珀
  最佳女主角 Lady Gaga
  最佳男配角(提名) 山姆·艾里奥特
  最佳改编剧本(提名) 艾瑞克·罗斯 / 威尔·法特斯 / 布莱德利·库珀
  最佳摄影(提名)
  最佳剪辑(提名)
  最佳歌曲

  第19届美国电影学会奖(2018)
  年度佳片

  第23届金卫星奖(2019)
  电影部门 最佳喜剧/音乐片
  电影部门 最佳导演(提名) 布莱德利·库珀
  电影部门 喜剧/音乐片最佳男主角(提名) 布莱德利·库珀
  电影部门 喜剧/音乐片最佳女主角(提名) Lady Gaga
  电影部门 最佳男配角(提名) 山姆·艾里奥特
  电影部门 最佳改编剧本(提名) 艾瑞克·罗斯 / 布莱德利·库珀
  电影部门 最佳原创歌曲
  电影部门 最佳摄影
  电影部门 最佳剪辑(提名)
  电影部门 最佳音效(提名)
  电影部门 最佳服装设计(提名)

  第22届好莱坞电影奖(2018)
  年度摄影奖 马修·利巴提克

  第17届华盛顿影评人协会奖(2018)
  最佳影片(提名)
  最佳导演(提名) 布莱德利·库珀
  最佳男主角 布莱德利·库珀
  最佳女主角 Lady Gaga
  最佳男配角(提名) 山姆·艾里奥特
  最佳改编剧本(提名) 艾瑞克·罗斯 / 威尔·法特斯 / 布莱德利·库珀
  最佳摄影(提名)
  最佳剪辑(提名)

  第31届芝加哥影评人协会奖(2018)
  最佳影片(提名)
  最佳导演(提名) 布莱德利·库珀
  最佳男主角(提名) 布莱德利·库珀
  最佳女主角(提名) Lady Gaga
  最佳改编剧本(提名) 艾瑞克·罗斯 / 威尔·法特斯 / 布莱德利·库珀
  最具潜力演员(提名) Lady Gaga
  最具潜力导演(提名) 布莱德利·库珀

  第17届旧金山影评人协会奖(2018)
  最佳女主角(提名) Lady Gaga

  第18届凤凰城影评人协会奖(2018)
  最佳女主角 Lady Gaga
  最佳原创歌曲
  十佳影片

  第12届底特律影评人协会奖(2018)
  最佳音乐运用

  第3届亚特兰大影评人协会奖(2018)
  十佳影片
  最佳男配角 山姆·艾里奥特
  突破表演奖 Lady Gaga
  最佳处女作 布莱德利·库珀

  第22届美国在线影评人协会奖(2019)
  最佳影片(提名)
  最佳男主角(提名) 布莱德利·库珀
  最佳女主角(提名) Lady Gaga
  最佳新导演(提名) 布莱德利·库珀
  最佳原创歌曲

  第5届豆瓣电影年度榜单(2018)
  年度电影原声(提名)





Video
ID : 1
Format : AVC
Format/Info : Advanced Video Codec
Format profile : High@L4.1
Format settings : CABAC / 2 Ref Frames
Format settings, CABAC : Yes
Format settings, ReFrames : 2 frames
Codec ID : V_MPEG4/ISO/AVC
Duration : 2 h 27 min
Bit rate mode : Variable
Bit rate : 24.7 Mb/s
Width : 1 920 pixels
Height : 1 080 pixels
Display aspect ratio : 16:9
Frame rate mode : Constant
Frame rate : 23.976 (24000/1001) FPS
Color space : YUV
Chroma subsampling : 4:2:0
Bit depth : 8 bits
Scan type : Progressive
Bits/(Pixel*Frame) : 0.496
Stream size : 25.4 GiB (75%)
Title : A.Star.Is.Born.2018.Encore.Edition.1080p.BluRay.REMUX.AVC.DTS-HD.MA.TrueHD.7.1.Atmos-FGT
Language : English
Default : No
Forced : No

Audio #1
ID : 2
Format : MLP FBA 16-ch
Format/Info : Meridian Lossless Packing FBA with 16-channel presentation
Commercial name : Dolby TrueHD with Dolby Atmos
Codec ID : A_TRUEHD
Duration : 2 h 27 min
Bit rate mode : Variable
Bit rate : 3 607 kb/s
Maximum bit rate : 5 304 kb/s
Channel(s) : 8 channels
Channel layout : L R C LFE Ls Rs Lb Rb
Sampling rate : 48.0 kHz
Frame rate : 1 200.000 FPS (40 SPF)
Compression mode : Lossless
Stream size : 3.72 GiB (11%)
Title : A.Star.Is.Born.2018.Encore.Edition.1080p.BluRay.REMUX.AVC.DTS-HD.MA.TrueHD.7.1.Atmos-FGT
Language : English
Default : Yes
Forced : No
Number of dynamic objects : 15
Bed channel count : 1 channel
Bed channel configuration : LFE

Audio #2
ID : 3
Format : DTS XLL
Format/Info : Digital Theater Systems
Commercial name : DTS-HD Master Audio
Codec ID : A_DTS
Duration : 2 h 27 min
Bit rate mode : Variable
Bit rate : 4 167 kb/s
Channel(s) : 8 channels
Channel layout : C L R LFE Lb Rb Lss Rss
Sampling rate : 48.0 kHz
Frame rate : 93.750 FPS (512 SPF)
Bit depth : 24 bits
Compression mode : Lossless
Stream size : 4.30 GiB (13%)
Title : A.Star.Is.Born.2018.Encore.Edition.1080p.BluRay.REMUX.AVC.DTS-HD.MA.TrueHD.7.1.Atmos-FGT
Language : English
Default : No
Forced : No

Audio #3
ID : 4
Format : AC-3
Format/Info : Audio Coding 3
Commercial name : Dolby Digital
Codec ID : A_AC3
Duration : 2 h 27 min
Bit rate mode : Constant
Bit rate : 448 kb/s
Channel(s) : 6 channels
Channel layout : L R C LFE Ls Rs
Sampling rate : 48.0 kHz
Frame rate : 31.250 FPS (1536 SPF)
Bit depth : 16 bits
Compression mode : Lossy
Stream size : 473 MiB (1%)
Title : A.Star.Is.Born.2018.Encore.Edition.1080p.BluRay.REMUX.AVC.DTS-HD.MA.TrueHD.7.1.Atmos-FGT
Language : English
Service kind : Complete Main
Default : No
Forced : No

Text #1
ID : 5
Format : UTF-8
Codec ID : S_TEXT/UTF8
Codec ID/Info : UTF-8 Plain Text
Duration : 2 h 26 min
Bit rate : 65 b/s
Count of elements : 2117
Stream size : 70.6 KiB (0%)
Title : English-SRT
Language : English
Default : Yes
Forced : No

Text #2
ID : 6
Format : UTF-8
Codec ID : S_TEXT/UTF8
Codec ID/Info : UTF-8 Plain Text
Duration : 2 h 26 min
Bit rate : 72 b/s
Count of elements : 2328
Stream size : 77.6 KiB (0%)
Title : English-SDH-SRT
Language : English
Default : No
Forced : No

Text #3
ID : 7
Format : PGS
Muxing mode : zlib
Codec ID : S_HDMV/PGS
Codec ID/Info : Picture based subtitle format used on BDs/HD-DVDs
Duration : 2 h 26 min
Bit rate : 43.4 kb/s
Count of elements : 4657
Stream size : 45.6 MiB (0%)
Title : English-PGS
Language : English
Default : No
Forced : No

Text #4
ID : 8
Format : PGS
Muxing mode : zlib
Codec ID : S_HDMV/PGS
Codec ID/Info : Picture based subtitle format used on BDs/HD-DVDs
Duration : 2 h 26 min
Bit rate : 31.9 kb/s
Count of elements : 3751
Stream size : 33.5 MiB (0%)
Title : Chinese-PGS
Language : Chinese
Default : No
Forced : No

Text #5
ID : 9
Format : PGS
Muxing mode : zlib
Codec ID : S_HDMV/PGS
Codec ID/Info : Picture based subtitle format used on BDs/HD-DVDs
Duration : 2 h 26 min
Bit rate : 29.5 kb/s
Count of elements : 4023
Stream size : 31.0 MiB (0%)
Title : Chinese-PGS
Language : Chinese
Default : No
Forced : No


Text #6
ID : 10
Format : PGS
Muxing mode : zlib
Codec ID : S_HDMV/PGS
Codec ID/Info : Picture based subtitle format used on BDs/HD-DVDs
Duration : 2 h 26 min
Bit rate : 22.5 kb/s
Count of elements : 3948
Stream size : 23.6 MiB (0%)
Title : Korean-PGS
Language : Korean
Default : No
Forced : No

Text #7
ID : 11
Format : PGS
Muxing mode : zlib
Codec ID : S_HDMV/PGS
Codec ID/Info : Picture based subtitle format used on BDs/HD-DVDs
Duration : 2 h 26 min
Bit rate : 27.8 kb/s
Count of elements : 3973
Stream size : 29.1 MiB (0%)
Title : Czech-PGS
Language : Czech
Default : No
Forced : No

Text #8
ID : 12
Format : PGS
Muxing mode : zlib
Codec ID : S_HDMV/PGS
Codec ID/Info : Picture based subtitle format used on BDs/HD-DVDs
Duration : 2 h 26 min
Bit rate : 34.3 kb/s
Count of elements : 4063
Stream size : 36.0 MiB (0%)
Title : Hungarian-PGS
Language : Hungarian
Default : No
Forced : No

Text #9
ID : 13
Format : PGS
Muxing mode : zlib
Codec ID : S_HDMV/PGS
Codec ID/Info : Picture based subtitle format used on BDs/HD-DVDs
Duration : 2 h 26 min
Bit rate : 33.3 kb/s
Count of elements : 4068
Stream size : 35.0 MiB (0%)
Title : Portuguese-PGS
Language : Portuguese
Default : No
Forced : No

Text #10
ID : 14
Format : PGS
Muxing mode : zlib
Codec ID : S_HDMV/PGS
Codec ID/Info : Picture based subtitle format used on BDs/HD-DVDs
Duration : 2 h 26 min
Bit rate : 27.1 kb/s
Count of elements : 3251
Stream size : 28.4 MiB (0%)
Title : Romanian-PGS
Language : Romanian
Default : No
Forced : No

Text #11
ID : 15
Format : PGS
Muxing mode : zlib
Codec ID : S_HDMV/PGS
Codec ID/Info : Picture based subtitle format used on BDs/HD-DVDs
Duration : 2 h 26 min
Bit rate : 36.0 kb/s
Count of elements : 4059
Stream size : 37.8 MiB (0%)
Title : Thai-PGS
Language : Thai
Default : No
Forced : No

Menu
00:00:00.000 : en:Chapter 01
00:09:18.224 : en:Chapter 02
00:16:40.874 : en:Chapter 03
00:21:41.300 : en:Chapter 04
00:31:43.484 : en:Chapter 05
00:37:51.185 : en:Chapter 06
00:40:44.400 : en:Chapter 07
00:51:34.508 : en:Chapter 08
00:59:01.829 : en:Chapter 09
01:01:30.937 : en:Chapter 10
01:12:15.247 : en:Chapter 11
01:21:37.475 : en:Chapter 12
01:29:16.809 : en:Chapter 13
01:32:36.676 : en:Chapter 14
01:45:32.326 : en:Chapter 15
01:54:51.801 : en:Chapter 16
02:02:40.895 : en:Chapter 17
02:13:08.939 : en:Chapter 18
02:17:08.261 : en:Chapter 19
游客,如果您要查看本帖隐藏内容请回复,您还可以免扣高清币免回复下载:https://www.85lou.com/plugin.php?id=wyfaka_url:url

#专属夏天的歌词#后来才知道, 好朋友不是通过努力争取来的, 而是在各自的道路上奔跑时遇见的。” ——刘同《向着光亮那方》
回复

使用道具 举报

永恒神话

高清币
20368
金钱
29615
鲜花
0
在线时间
717 小时
最后登录
2019-6-24
发表于 2019-6-9 12:10:30 | 显示全部楼层
楼主发贴辛苦了,谢谢楼主分享!我觉得中国高清论坛是注册对了!
回复 支持 1 反对 0

使用道具 举报

好莱坞明星

高清币
1254
金钱
6185
鲜花
0
在线时间
2480 小时
最后登录
2019-6-24
发表于 2019-6-9 11:37:30 | 显示全部楼层

楼主太厉害了!楼主,电影应该很好看我觉得中国高清论坛真是个好地方!
回复 支持 反对

使用道具 举报

金鸡奖主角

高清币
765
金钱
3213
鲜花
0
在线时间
930 小时
最后登录
2019-6-24
发表于 2019-6-9 11:37:48 | 显示全部楼层
楼主发贴辛苦了,谢谢楼主分享!我觉得中国高清论坛是注册对了!
回复 支持 反对

使用道具 举报

金鸡奖主角

高清币
331
金钱
4996
鲜花
0
在线时间
1004 小时
最后登录
2019-6-24
发表于 2019-6-9 11:38:01 | 显示全部楼层

楼主太厉害了!楼主,电影应该很好看我觉得中国高清论坛真是个好地方!
回复 支持 反对

使用道具 举报

金鸡奖主角

高清币
589
金钱
3082
鲜花
0
在线时间
384 小时
最后登录
2019-6-21
发表于 2019-6-9 11:40:40 | 显示全部楼层

楼主太厉害了!楼主,电影应该很好看我觉得中国高清论坛真是个好地方!
回复 支持 反对

使用道具 举报

超级明星

高清币
238
金钱
8096
鲜花
0
在线时间
1159 小时
最后登录
2019-6-24
发表于 2019-6-9 11:44:29 | 显示全部楼层
谢谢老大。看一看回一回顶一顶。
回复 支持 反对

使用道具 举报

永恒神话

高清币
9679
金钱
13337
鲜花
0
在线时间
1396 小时
最后登录
2019-6-24
发表于 2019-6-9 11:45:26 | 显示全部楼层
Thanks for sharing!
回复 支持 反对

使用道具 举报

VIP贵宾

高清币
37925
金钱
49044
鲜花
0
在线时间
8959 小时
最后登录
2019-6-24
发表于 2019-6-9 11:46:29 | 显示全部楼层

这东西我收了!谢谢楼主!中国高清论坛真好!
回复 支持 反对

使用道具 举报

天王巨星

高清币
2
金钱
2076
鲜花
0
在线时间
229 小时
最后登录
2019-6-22
发表于 2019-6-9 11:54:20 | 显示全部楼层
谢谢楼主分享!

回复 支持 反对

使用道具 举报

懒得打字嘛,点击右侧快捷回复 【右侧内容,后台自定义】
您需要登录后才可以回帖 登录 | 立即注册

本版积分规则

QQ|手机版|小黑屋|中国高清论坛 ( 黔ICP备16007815号-1 )

GMT+8, 2019-6-24 23:52 , Processed in 0.054507 second(s), 29 queries .

Powered by Discuz! X3.4

© 2001-2017 Comsenz Inc.

快速回复 返回顶部 返回列表