请选择 进入手机版 | 继续访问电脑版

中国高清论坛

 找回密码
 立即注册
搜索
查看: 4021|回复: 1047

[动作片] 死侍2:我爱我家 Deadpool.2.2018.UNRATED.MULTI.1080p.BluRay.x264 11.35 GiB

  [复制链接]

超级版主

高清币
17046
金钱
39535
鲜花
0
在线时间
12125 小时
最后登录
2019-9-16
发表于 2019-6-9 19:05:08 | 显示全部楼层 |阅读模式


◎译  名 死侍2:我爱我家/死侍2/死侍往事/死侍2:童话篇
◎片  名 Deadpool 2
◎年  代 2018
◎国  家 美国
◎类  别 动作/冒险/喜剧
◎语  言 英语
◎IMDb评分 8.0/10 from 194751 users
◎IMDB链接 http://www.imdb.com/title/tt5463162
◎片  长 02:13:59.579 (h:m:s.ms)
◎导  演 大卫·里奇 David Leitch
◎主  演 瑞安·雷诺兹 Ryan Reynolds
      乔什·布洛林 Josh Brolin
      莫蕾娜·巴卡林 Morena Baccarin
      布里安娜·希德布兰德 Brianna Hildebrand
      T·J·米勒 T.J. Miller
      比尔·斯卡斯加德 Bill Skarsgård
      莎姬·贝兹 Zazie Beetz
      泰瑞·克鲁斯 Terry Crews
      埃迪·马森 Eddie Marsan
      杰克·凯西 Jack Kesy
      莱斯利·格塞斯 Leslie Uggams
      忽那汐里 Kutsuna Shiori
      朱利安·迪尼森 Julian Dennison
      刘易斯·谭 Lewis Tan
      卡兰·索尼 Karan Soni
      布拉德·皮特 Brad Pitt
      马特·达蒙 Matt Damon
      休·杰克曼 Hugh Jackman
      詹姆斯·麦卡沃伊 James McAvoy
      尼古拉斯·霍尔特 Nicholas Hoult
      埃文·彼得斯 Evan Peters
      泰伊·谢里丹 Tye Sheridan
      亚历山德拉·希普 Alexandra Shipp
      柯蒂·斯密特-麦菲 Kodi Smit-McPhee
      艾伦·图代克 Alan Tudyk

◎简  介

  当一个穿着红色紧身衣的贱嘴超级英雄,遇上一个带着刺杀任务的超级战士时,他们之间的战火一触即发;而死侍也被迫要开始思考友情、家人以及身为一个超级英雄背后真正的意义——当然,在进行这些深度思考的同时,他也绝对不会忘了要好好地大踹“五十道屁股的阴影”。毕竟,你也知道,这些干大事的人,在替自己行善积德做这些好事的同时,也总是不免俗地要使出一些肮脏的小手段嘛,你说是不是...


  1. General
  2. Unique ID                      : 208058985847865134004457629540957938192 (0x9C86B3FEA51ECC30BF2FA40A91D5E210)
  3. Complete name                  : E:\迅雷下载\[ Torrent9.cz ] Deadpool.2.2018.UNRATED.MULTI.1080p.BluRay.x264.mkv
  4. Format                         : Matroska
  5. Format version                 : Version 4
  6. File size                      : 11.3 GiB
  7. Duration                       : 2 h 13 min
  8. Overall bit rate               : 12.1 Mb/s
  9. Encoded date                   : UTC 2018-08-10 17:27:27
  10. Writing application            : mkvmerge v7.8.0 ('River Man') 32bit built on Mar 27 2015 16:18:02
  11. Writing library                : libebml v1.3.1 + libmatroska v1.4.2
  12. FileExtension_Invalid          : mkv mk3d mka mks

  13. Video
  14. ID                             : 4
  15. Format                         : AVC
  16. Format/Info                    : Advanced Video Codec
  17. Format profile                 : High@L4.1
  18. Format settings                : CABAC / 5 Ref Frames
  19. Format settings, CABAC         : Yes
  20. Format settings, ReFrames      : 5 frames
  21. Codec ID                       : V_MPEG4/ISO/AVC
  22. Duration                       : 2 h 13 min
  23. Bit rate                       : 10.2 Mb/s
  24. Width                          : 1 920 pixels
  25. Height                         : 808 pixels
  26. Display aspect ratio           : 2.40:1
  27. Frame rate mode                : Constant
  28. Frame rate                     : 23.976 (24000/1001) FPS
  29. Color space                    : YUV
  30. Chroma subsampling             : 4:2:0
  31. Bit depth                      : 8 bits
  32. Scan type                      : Progressive
  33. Bits/(Pixel*Frame)             : 0.273
  34. Stream size                    : 9.29 GiB (82%)
  35. Writing library                : x264 core 155 r2901 7d0ff22
  36. Encoding settings              : cabac=1 / ref=5 / deblock=1:-3:-3 / analyse=0x3:0x113 / me=umh / subme=8 / psy=1 / psy_rd=1.00:0.15 / mixed_ref=1 / me_range=16 / chroma_me=1 / trellis=1 / 8x8dct=1 / cqm=0 / deadzone=21,11 / fast_pskip=1 / chroma_qp_offset=-3 / threads=25 / lookahead_threads=4 / sliced_threads=0 / nr=0 / decimate=1 / interlaced=0 / bluray_compat=0 / constrained_intra=0 / bframes=3 / b_pyramid=2 / b_adapt=1 / b_bias=0 / direct=3 / weightb=1 / open_gop=0 / weightp=2 / keyint=240 / keyint_min=24 / scenecut=40 / intra_refresh=0 / rc_lookahead=50 / rc=2pass / mbtree=1 / bitrate=10165 / ratetol=1.0 / qcomp=0.60 / qpmin=0 / qpmax=69 / qpstep=4 / cplxblur=20.0 / qblur=0.5 / ip_ratio=1.40 / aq=1:0.80
  37. Default                        : Yes
  38. Forced                         : No

  39. Audio #1
  40. ID                             : 1
  41. Format                         : AC-3
  42. Format/Info                    : Audio Coding 3
  43. Commercial name                : Dolby Digital
  44. Codec ID                       : A_AC3
  45. Duration                       : 2 h 13 min
  46. Bit rate mode                  : Constant
  47. Bit rate                       : 448 kb/s
  48. Channel(s)                     : 6 channels
  49. Channel layout                 : L R C LFE Ls Rs
  50. Sampling rate                  : 48.0 kHz
  51. Frame rate                     : 31.250 FPS (1536 SPF)
  52. Bit depth                      : 16 bits
  53. Compression mode               : Lossy
  54. Stream size                    : 429 MiB (4%)
  55. Language                       : French
  56. Service kind                   : Complete Main
  57. Default                        : Yes
  58. Forced                         : No

  59. Audio #2
  60. ID                             : 5
  61. Format                         : DTS ES
  62. Format/Info                    : Digital Theater Systems
  63. Commercial name                : DTS-ES Matrix
  64. Codec ID                       : A_DTS
  65. Duration                       : 2 h 13 min
  66. Bit rate mode                  : Constant
  67. Bit rate                       : 1 509 kb/s
  68. Channel(s)                     : 6 channels
  69. Channel(s)_Original            : 7 channels
  70. Channel layout                 : C L R Ls Rs Cb LFE
  71. Sampling rate                  : 48.0 kHz
  72. Frame rate                     : 93.750 FPS (512 SPF)
  73. Bit depth                      : 24 bits
  74. Compression mode               : Lossy
  75. Stream size                    : 1.41 GiB (12%)
  76. Language                       : English
  77. Default                        : No
  78. Forced                         : No

  79. Text #1
  80. ID                             : 2
  81. Format                         : UTF-8
  82. Codec ID                       : S_TEXT/UTF8
  83. Codec ID/Info                  : UTF-8 Plain Text
  84. Title                          : Forced
  85. Language                       : French
  86. Default                        : Yes
  87. Forced                         : No

  88. Text #2
  89. ID                             : 3
  90. Format                         : UTF-8
  91. Codec ID                       : S_TEXT/UTF8
  92. Codec ID/Info                  : UTF-8 Plain Text
  93. Language                       : French
  94. Default                        : No
  95. Forced                         : No

  96. Menu
  97. 00:00:00.000                   : en:00:00:00.000
  98. 00:02:31.693                   : en:00:02:31.693
  99. 00:07:55.517                   : en:00:07:55.517
  100. 00:10:46.229                   : en:00:10:46.229
  101. 00:14:21.194                   : en:00:14:21.194
  102. 00:17:42.937                   : en:00:17:42.937
  103. 00:19:10.775                   : en:00:19:10.775
  104. 00:24:14.370                   : en:00:24:14.370
  105. 00:27:11.630                   : en:00:27:11.630
  106. 00:37:17.444                   : en:00:37:17.444
  107. 00:42:11.821                   : en:00:42:11.821
  108. 00:44:40.428                   : en:00:44:40.428
  109. 00:49:30.926                   : en:00:49:30.926
  110. 00:52:20.471                   : en:00:52:20.471
  111. 00:56:47.613                   : en:00:56:47.613
  112. 01:01:00.073                   : en:01:01:00.073
  113. 01:04:47.050                   : en:01:04:47.050
  114. 01:07:22.997                   : en:01:07:22.997
  115. 01:09:45.098                   : en:01:09:45.098
  116. 01:11:45.426                   : en:01:11:45.426
  117. 01:15:21.016                   : en:01:15:21.016
  118. 01:19:19.213                   : en:01:19:19.213
  119. 01:21:00.189                   : en:01:21:00.189
  120. 01:24:49.543                   : en:01:24:49.543
  121. 01:29:10.845                   : en:01:29:10.845
  122. 01:32:30.420                   : en:01:32:30.420
  123. 01:36:11.391                   : en:01:36:11.391
  124. 01:38:18.851                   : en:01:38:18.851
  125. 01:42:06.329                   : en:01:42:06.329
  126. 01:44:18.711                   : en:01:44:18.711
  127. 01:46:03.774                   : en:01:46:03.774
  128. 01:48:06.730                   : en:01:48:06.730
  129. 01:51:31.977                   : en:01:51:31.977
  130. 01:55:05.398                   : en:01:55:05.398
  131. 01:58:16.047                   : en:01:58:16.047
  132. 02:02:04.317                   : en:02:02:04.317

复制代码

游客,如果您要查看本帖隐藏内容请回复,您还可以免扣高清币免回复下载:https://www.85lou.com/plugin.php?id=wyfaka_url:url
回复

使用道具 举报

永恒神话

高清币
31404
金钱
42738
鲜花
0
在线时间
1043 小时
最后登录
2019-9-16
发表于 2019-6-13 22:52:59 | 显示全部楼层
楼主发贴辛苦了,谢谢楼主分享!我觉得中国高清论坛是注册对了!
回复 支持 1 反对 0

使用道具 举报

天王巨星

高清币
43
金钱
1805
鲜花
0
在线时间
181 小时
最后登录
2019-9-14
发表于 2019-6-14 00:16:59 | 显示全部楼层
感謝樓主分享精彩電影
回复 支持 1 反对 0

使用道具 举报

金鸡奖主角

高清币
571
金钱
4306
鲜花
0
在线时间
437 小时
最后登录
2019-9-11
发表于 2019-6-14 00:35:01 | 显示全部楼层
楼主发贴辛苦了,谢谢楼主分享!我觉得中国高清论坛是注册对了!
回复 支持 1 反对 0

使用道具 举报

superstar

高清币
3064
金钱
9847
鲜花
0
在线时间
1627 小时
最后登录
2019-9-16
发表于 2019-6-9 19:09:11 | 显示全部楼层

这东西我收了!谢谢楼主!中国高清论坛真好!
回复 支持 0 反对 1

使用道具 举报

超级明星

高清币
2168
金钱
5319
鲜花
0
在线时间
932 小时
最后登录
2019-9-15
发表于 2019-6-9 19:20:00 | 显示全部楼层

我看不错噢 谢谢楼主!中国高清论坛越来越好!
回复 支持 反对

使用道具 举报

好莱坞明星

高清币
75
金钱
6848
鲜花
0
在线时间
1592 小时
最后登录
2019-9-16
发表于 2019-6-9 19:20:19 | 显示全部楼层

楼主太厉害了!楼主,电影应该很好看我觉得中国高清论坛真是个好地方!
回复 支持 反对

使用道具 举报

超级明星

高清币
905
金钱
8057
鲜花
0
在线时间
3202 小时
最后登录
2019-9-16
发表于 2019-6-9 19:21:29 | 显示全部楼层

感谢楼主的无私分享!要想中国高清论坛好 就靠你我他
回复 支持 反对

使用道具 举报

人气偶像

高清币
7
金钱
1022
鲜花
0
在线时间
129 小时
最后登录
2019-9-15
发表于 2019-6-9 19:23:14 | 显示全部楼层

我看不错噢 谢谢楼主!中国高清论坛越来越好!
回复 支持 反对

使用道具 举报

VIP贵宾

高清币
7
金钱
2070
鲜花
0
在线时间
578 小时
最后登录
2019-9-14
发表于 2019-6-9 19:23:28 | 显示全部楼层
拒绝急急急急急急
回复 支持 反对

使用道具 举报

VIP贵宾

高清币
7
金钱
2070
鲜花
0
在线时间
578 小时
最后登录
2019-9-14
发表于 2019-6-9 19:23:48 | 显示全部楼层
楼主发贴辛苦了,谢谢楼主分享!我觉得中国高清论坛是注册对了!
回复 支持 反对

使用道具 举报

影坛巨星

高清币
4078
金钱
5666
鲜花
0
在线时间
851 小时
最后登录
2019-9-16
发表于 2019-6-9 19:25:24 | 显示全部楼层

这个帖子不回对不起自己!我想我是一天也不能离开中国高清论坛
回复 支持 反对

使用道具 举报

知名艺人

高清币
0
金钱
586
鲜花
0
在线时间
121 小时
最后登录
2019-7-26
发表于 2019-6-9 19:27:14 | 显示全部楼层
谢谢楼主!中国高清论坛越来越好!
回复 支持 反对

使用道具 举报

懒得打字嘛,点击右侧快捷回复 【右侧内容,后台自定义】
您需要登录后才可以回帖 登录 | 立即注册

本版积分规则

QQ|手机版|小黑屋|中国高清论坛 ( 黔ICP备16007815号-1 )

GMT+8, 2019-9-16 20:19 , Processed in 1.110571 second(s), 27 queries .

Powered by Discuz! X3.4

© 2001-2017 Comsenz Inc.

快速回复 返回顶部 返回列表