请选择 进入手机版 | 继续访问电脑版

中国高清论坛

 找回密码
 立即注册
搜索
查看: 520|回复: 83

[1080P] 稻米的故事 The.Story.of.Rice.2019.1080i.CCTV9.HDTV.H.264-FLTTH 6.05G

  [复制链接]

高清发布组

高清币
3351
金钱
4227
鲜花
5
在线时间
949 小时
最后登录
2019-6-27
发表于 2019-6-11 18:06:15 | 显示全部楼层 |阅读模式
SS_00013.jpg SS_00014.jpg SS_00015.jpg SS_00016.jpg SS_00017.jpg SS_00018.jpg
  1. General (Sample)
  2. ID                                       : 1 (0x1)
  3. Complete name                            : The.Story.of.Rice.2019.E04.1080i.CCTV9.HDTV.H.264.MPEG-FLTTH.ts
  4. Format                                   : MPEG-TS
  5. File size                                : 1.61 GiB
  6. Duration                                 : 28 min 28 s
  7. Overall bit rate mode                    : Constant
  8. Overall bit rate                         : 8 099 kb/s

  9. Video
  10. ID                                       : 4113 (0x1011)
  11. Menu ID                                  : 1 (0x1)
  12. Format                                   : AVC
  13. Format/Info                              : Advanced Video Codec
  14. Format profile                           : High@L4
  15. Format settings                          : CABAC / 3 Ref Frames
  16. Format settings, CABAC                   : Yes
  17. Format settings, RefFrames               : 3 frames
  18. Format settings, GOP                     : M=2, N=25
  19. Codec ID                                 : 27
  20. Duration                                 : 28 min 28 s
  21. Bit rate mode                            : Constant
  22. Bit rate                                 : 7 569 kb/s
  23. Nominal bit rate                         : 6 990 kb/s
  24. Width                                    : 1 920 pixels
  25. Height                                   : 1 080 pixels
  26. Display aspect ratio                     : 16:9
  27. Frame rate                               : 25.000 FPS
  28. Color space                              : YUV
  29. Chroma subsampling                       : 4:2:0
  30. Bit depth                                : 8 bits
  31. Scan type                                : Progressive
  32. Bits/(Pixel*Frame)                       : 0.146
  33. Stream size                              : 1.51 GiB (93%)

  34. Audio
  35. ID                                       : 4352 (0x1100)
  36. Menu ID                                  : 1 (0x1)
  37. Format                                   : MPEG Audio
  38. Format version                           : Version 1
  39. Format profile                           : Layer 2
  40. Codec ID                                 : 3
  41. Duration                                 : 28 min 28 s
  42. Bit rate mode                            : Constant
  43. Bit rate                                 : 128 kb/s
  44. Channel(s)                               : 2 channels
  45. Sampling rate                            : 48.0 kHz
  46. Frame rate                               : 41.667 FPS (1152 SPF)
  47. Compression mode                         : Lossy
  48. Delay relative to video                  : -12 ms
  49. Stream size                              : 26.1 MiB (2%)

  50. Menu
  51. ID                                       : 256 (0x100)
  52. Menu ID                                  : 1 (0x1)
  53. Duration                                 : 28 min 28 s
  54. List                                     : 4113 (0x1011) (AVC) / 4352 (0x1100) (MPEG Audio)
  55. Service type                             : digital television

复制代码
纪录片简介:
    吉林省拥有国际公认的黄金水稻带的核心区域,在我国粮食安全与生态安全方面具有战略地位。纪录片《稻米的故事》以吉林省稻米种植区域分布、土壤特征及生态环境等自然条件为基础,筛选了10位不同类型的稻米种植业人物,以他们在一年四季水稻生产中的经历为主线,以水稻一年四季的生长变化为核心,以吉林省自然生态和历史文化作为辅助线索,以生命的轮回、情感的延续、文化的传承为表达主题,通过展示人物的生产生活、喜怒哀乐、人生情感,展现这方水土所锻造出来的人文精神与文化底蕴。
    该片通过连续的结构方式,将人物和水稻相依相守的生命历程贯穿始终,并将整个过程划分为5个阶段,归纳出5个连续递进的主题,分别是因缘、时遇、造化、和合、轮回,最终形成人与水稻、人与自然命运交织的情感故事。稻米作为农作物没有生命,该片以东北鲜明的季节变化为背景,将水稻作为独立的主体,塑造其与人类共通的成长历程,以人喻稻,以稻喻人,作为农业题材纪录片,不失为一种有效的探索方式。
    作为吉林省首部全方位解读稻米种植业的纪录片,《稻米的故事》不仅积极探索吉林乡村振兴、农民安居乐业的有效途径,更放眼未来,探讨关乎人类命运的粮食安全和如何建设生态农业问题,体现了吉林省作为农业大省的情怀与担当。

下载地址(全4集):
https://pan.baidu.com/s/1d6M9ZMIvpOyCYUM8KjdwfQ 提取码:q67i

回复

使用道具 举报

金鸡奖主角

高清币
1555
金钱
3513
鲜花
0
在线时间
297 小时
最后登录
2019-6-27
发表于 2019-6-11 18:10:40 | 显示全部楼层
楼主发贴辛苦了,谢谢楼主分享!我觉得中国高清论坛是注册对了!
回复 支持 反对

使用道具 举报

跑龙套

高清币
14
金钱
35
鲜花
0
在线时间
4 小时
最后登录
2019-6-16
发表于 2019-6-11 18:20:19 | 显示全部楼层

其实我一直觉得楼主的品味不错!呵呵!中国高清论坛太棒了!
回复 支持 反对

使用道具 举报

人气偶像

高清币
28
金钱
2126
鲜花
0
在线时间
634 小时
最后登录
2019-6-27
发表于 2019-6-11 18:26:06 | 显示全部楼层
这东西我收了!谢谢楼主!中国高清论坛真好!
回复 支持 反对

使用道具 举报

永恒神话

高清币
7956
金钱
13536
鲜花
0
在线时间
1145 小时
最后登录
2019-6-27
发表于 2019-6-11 18:30:52 | 显示全部楼层

楼主太厉害了!楼主,电影应该很好看我觉得中国高清论坛真是个好地方!
回复 支持 反对

使用道具 举报

金鸡奖主角

高清币
2083
金钱
2440
鲜花
0
在线时间
83 小时
最后登录
2019-6-26
发表于 2019-6-11 18:44:07 | 显示全部楼层
呵呵 高兴成什么样了啊!!!
回复 支持 反对

使用道具 举报

好莱坞明星

高清币
667
金钱
5820
鲜花
0
在线时间
1537 小时
最后登录
2019-6-27
发表于 2019-6-11 19:11:27 | 显示全部楼层
谢谢楼主分享!
回复 支持 反对

使用道具 举报

好莱坞明星

高清币
2081
金钱
4799
鲜花
0
在线时间
659 小时
最后登录
2019-6-27
发表于 2019-6-11 19:11:33 | 显示全部楼层

我看不错噢 谢谢楼主!中国高清论坛越来越好!
回复 支持 反对

使用道具 举报

人气偶像

高清币
540
金钱
963
鲜花
0
在线时间
45 小时
最后登录
2019-6-27
发表于 2019-6-11 19:13:46 | 显示全部楼层
楼主太厉害了!楼主,电影应该很好看我觉得中国高清论坛真是个好地方!
回复 支持 反对

使用道具 举报

影坛巨星

高清币
3437
金钱
5447
鲜花
0
在线时间
475 小时
最后登录
2019-6-26
发表于 2019-6-11 19:52:14 | 显示全部楼层
谢谢楼主分享
回复 支持 反对

使用道具 举报

懒得打字嘛,点击右侧快捷回复 【右侧内容,后台自定义】
您需要登录后才可以回帖 登录 | 立即注册

本版积分规则

QQ|手机版|小黑屋|中国高清论坛 ( 黔ICP备16007815号-1 )

GMT+8, 2019-6-27 20:20 , Processed in 0.059813 second(s), 28 queries .

Powered by Discuz! X3.4

© 2001-2017 Comsenz Inc.

快速回复 返回顶部 返回列表