请选择 进入手机版 | 继续访问电脑版

中国高清论坛

 找回密码
 立即注册
搜索
查看: 4084|回复: 685

[剧情片] 余波/敌人妻(港) The.Aftermath.2019.1080p.WEB-DL.DD5.1.H264-FGT 4.21 GiB

  [复制链接]

超级版主

高清币
17046
金钱
39535
鲜花
0
在线时间
12125 小时
最后登录
2019-9-16
发表于 2019-6-11 19:40:28 | 显示全部楼层 |阅读模式



◎译  名 余波/情,敌(台)/敌人妻(港)
◎片  名 The Aftermath
◎年  代 2019
◎国  家 英国/美国/德国
◎类  别 剧情/爱情/战争
◎语  言 英语
◎IMDb评分 6.3/10 from 2353 users
◎IMDB链接 https://www.imdb.com/title/tt5977276/
◎片  长 1 h 49 min
◎导  演 詹姆斯·肯特 James Kent
◎主  演 亚历山大·斯卡斯加德 Alexander Skarsgård
       凯拉·奈特莉 Keira Knightley
       杰森·克拉克 Jason Clarke
       凯特·菲利普斯 Kate Phillips


◎简  介 

  根据Rhidian Brook同名小说改编,故事设定在1946年二战刚结束的德国汉堡。英军上校刘易斯奉命驻扎在这座城市,负责重建工作,他的妻子瑞切尔以及11岁的小儿子艾德蒙和他一起搬到了汉堡。不过让瑞切尔愤怒的是,他们和一家德国人住在同一幢大房子里。瑞切尔和刘易斯的长子在德军轰炸中丧生,为此她极其的痛恨德国人。这家德国人是一位父亲和他16岁的女儿,他们在战争中失去了妻子(母亲),对英国人也没有好脸色。不过刘易斯坚持这样安排,大家只好别别扭扭的住在同一个屋檐下。

  二战后的德国非常混乱,占领军与德国人的矛盾一直存在,还有些德国人企图重新集结为纳粹招魂。然而,瑞切尔关心的却是她自己家的问题,丈夫整日忙于工作,无暇顾及自己孩子,她唯一可以交流的人就是那个德国鳏夫(其实她并不知道,丈夫之所以如此忘我工作,也是为了忘却丧子之痛),慢慢的,这两个一开始互相敌视的人相爱了……
  1. Video
  2. ID : 1
  3. Format : AVC
  4. Format/Info : Advanced Video Codec
  5. Format profile : High@L4
  6. Format settings : CABAC / 4 Ref Frames
  7. Format settings, CABAC : Yes
  8. Format settings, ReFrames : 4 frames
  9. Codec ID : V_MPEG4/ISO/AVC
  10. Duration : 1 h 49 min
  11. Bit rate : 5 136 kb/s
  12. Width : 1 920 pixels
  13. Height : 1 038 pixels
  14. Display aspect ratio : 1.85:1
  15. Frame rate mode : Constant
  16. Frame rate : 23.976 FPS
  17. Color space : YUV
  18. Chroma subsampling : 4:2:0
  19. Bit depth : 8 bits
  20. Scan type : Progressive
  21. Bits/(Pixel*Frame) : 0.107
  22. Stream size : 3.92 GiB (93%)
  23. Title : The.Aftermath.2019.1080p.WEB-DL.DD5.1.H264-FGT
  24. Language : English
  25. Default : Yes
  26. Forced : No
  27. Color range : Limited
  28. Color primaries : BT.709
  29. Transfer characteristics : BT.709
  30. Matrix coefficients : BT.709

  31. Audio
  32. ID : 2
  33. Format : AC-3
  34. Format/Info : Audio Coding 3
  35. Commercial name : Dolby Digital
  36. Codec ID : A_AC3
  37. Duration : 1 h 48 min
  38. Bit rate mode : Constant
  39. Bit rate : 384 kb/s
  40. Channel(s) : 6 channels
  41. Channel layout : L R C LFE Ls Rs
  42. Sampling rate : 48.0 kHz
  43. Frame rate : 31.250 FPS (1536 SPF)
  44. Bit depth : 16 bits
  45. Compression mode : Lossy
  46. Stream size : 298 MiB (7%)
  47. Title : The.Aftermath.2019.1080p.WEB-DL.DD5.1.H264-FGT
  48. Language : English
  49. Service kind : Complete Main
  50. Default : Yes
  51. Forced : No

  52. Text #1
  53. ID : 3
  54. Format : UTF-8
  55. Codec ID : S_TEXT/UTF8
  56. Codec ID/Info : UTF-8 Plain Text
  57. Duration : 1 h 39 min
  58. Bit rate : 30 b/s
  59. Count of elements : 907
  60. Stream size : 22.5 KiB (0%)
  61. Language : English
  62. Default : Yes
  63. Forced : No

  64. Text #2
  65. ID : 4
  66. Format : UTF-8
  67. Codec ID : S_TEXT/UTF8
  68. Codec ID/Info : UTF-8 Plain Text
  69. Duration : 1 h 41 min
  70. Bit rate : 36 b/s
  71. Count of elements : 1098
  72. Stream size : 27.1 KiB (0%)
  73. Title : SDH
  74. Language : English
  75. Default : No
  76. Forced : No

  77. Menu
  78. 00:00:00.000 : en:Chapter 01
  79. 00:03:59.197 : en:Chapter 02
  80. 00:10:36.385 : en:Chapter 03
  81. 00:14:20.150 : en:Chapter 04
  82. 00:17:50.777 : en:Chapter 05
  83. 00:22:39.524 : en:Chapter 06
  84. 00:27:49.876 : en:Chapter 07
  85. 00:35:08.522 : en:Chapter 08
  86. 00:37:10.018 : en:Chapter 09
  87. 00:41:32.070 : en:Chapter 10
  88. 00:46:28.073 : en:Chapter 11
  89. 00:49:58.866 : en:Chapter 12
  90. 00:56:02.688 : en:Chapter 13
  91. 01:02:04.673 : en:Chapter 14
  92. 01:04:48.627 : en:Chapter 15
  93. 01:09:00.252 : en:Chapter 16
  94. 01:15:58.294 : en:Chapter 17
  95. 01:19:47.022 : en:Chapter 18
  96. 01:22:08.037 : en:Chapter 19
  97. 01:27:00.495 : en:Chapter 20
  98. 01:29:35.774 : en:Chapter 21
  99. 01:33:38.600 : en:Chapter 22
  100. 01:39:15.018 : en:Chapter 23
  101. 01:42:46.854 : en:Chapter 24
复制代码








游客,如果您要查看本帖隐藏内容请回复,您还可以免扣高清币免回复下载:https://www.85lou.com/plugin.php?id=wyfaka_url:url
回复

使用道具 举报

superstar

高清币
5794
金钱
8134
鲜花
0
在线时间
552 小时
最后登录
2019-9-16
发表于 2019-6-11 19:44:38 | 显示全部楼层
谢谢楼主分享
回复 支持 反对

使用道具 举报

好莱坞明星

高清币
810
金钱
6056
鲜花
0
在线时间
1667 小时
最后登录
2019-9-16
发表于 2019-6-11 19:46:51 | 显示全部楼层

我看不错噢 谢谢楼主!中国高清论坛越来越好!
回复 支持 反对

使用道具 举报

天王巨星

高清币
595
金钱
1379
鲜花
0
在线时间
248 小时
最后登录
2019-9-16
发表于 2019-6-11 19:53:05 | 显示全部楼层

楼主,大恩不言谢了!中国高清论坛是最棒的!
回复 支持 反对

使用道具 举报

金鸡奖主角

高清币
718
金钱
5505
鲜花
0
在线时间
1088 小时
最后登录
2019-9-16
发表于 2019-6-11 19:54:54 | 显示全部楼层

这东西我收了!谢谢楼主!中国高清论坛真好!
回复 支持 反对

使用道具 举报

金鸡奖主角

高清币
156
金钱
4154
鲜花
0
在线时间
1328 小时
最后登录
2019-9-9
发表于 2019-6-11 19:55:34 | 显示全部楼层

这个帖子不回对不起自己!我想我是一天也不能离开中国高清论坛
回复 支持 反对

使用道具 举报

超级明星

高清币
871
金钱
7542
鲜花
0
在线时间
1811 小时
最后登录
2019-9-16
发表于 2019-6-11 19:55:38 | 显示全部楼层
中国高清论坛是最棒的!
回复 支持 反对

使用道具 举报

永恒神话

高清币
506
金钱
18856
鲜花
0
在线时间
2544 小时
最后登录
2019-9-15
发表于 2019-6-11 19:56:59 | 显示全部楼层

楼主太厉害了!楼主,电影应该很好看我觉得中国高清论坛真是个好地方!
回复 支持 反对

使用道具 举报

金鸡奖主角

高清币
471
金钱
5080
鲜花
0
在线时间
717 小时
最后登录
2019-9-15
发表于 2019-6-11 19:57:26 | 显示全部楼层
谢谢楼主分享
回复 支持 反对

使用道具 举报

天王巨星

高清币
181
金钱
2733
鲜花
0
在线时间
463 小时
最后登录
2019-9-14
发表于 2019-6-11 19:58:16 | 显示全部楼层
楼主发贴辛苦了,谢谢楼主分享!我觉得中国高清论坛是注册对了!
回复 支持 反对

使用道具 举报

懒得打字嘛,点击右侧快捷回复 【右侧内容,后台自定义】
您需要登录后才可以回帖 登录 | 立即注册

本版积分规则

QQ|手机版|小黑屋|中国高清论坛 ( 黔ICP备16007815号-1 )

GMT+8, 2019-9-16 20:02 , Processed in 0.070997 second(s), 26 queries .

Powered by Discuz! X3.4

© 2001-2017 Comsenz Inc.

快速回复 返回顶部 返回列表