请选择 进入手机版 | 继续访问电脑版

中国高清论坛

 找回密码
 立即注册
搜索
查看: 1600|回复: 347

[剧情片] 余波/情,敌(台) The.Aftermath.2019.1080p.WEBRip.DDP5.1.x264-SWTYBLZ 8.07 GiB

  [复制链接]

超级版主

高清币
16132
金钱
37547
鲜花
0
在线时间
11702 小时
最后登录
2019-6-27
发表于 2019-6-11 22:35:53 | 显示全部楼层 |阅读模式



◎译  名 余波/情,敌(台)/敌人妻(港)
◎片  名 The Aftermath
◎年  代 2019
◎国  家 英国/美国/德国
◎类  别 剧情/爱情/战争
◎语  言 英语
◎IMDb评分 6.3/10 from 2353 users
◎IMDB链接 https://www.imdb.com/title/tt5977276/
◎片  长 1 h 49 min
◎导  演 詹姆斯·肯特 James Kent
◎主  演 亚历山大·斯卡斯加德 Alexander Skarsgård
       凯拉·奈特莉 Keira Knightley
       杰森·克拉克 Jason Clarke
       凯特·菲利普斯 Kate Phillips


◎简  介 

  根据Rhidian Brook同名小说改编,故事设定在1946年二战刚结束的德国汉堡。英军上校刘易斯奉命驻扎在这座城市,负责重建工作,他的妻子瑞切尔以及11岁的小儿子艾德蒙和他一起搬到了汉堡。不过让瑞切尔愤怒的是,他们和一家德国人住在同一幢大房子里。瑞切尔和刘易斯的长子在德军轰炸中丧生,为此她极其的痛恨德国人。这家德国人是一位父亲和他16岁的女儿,他们在战争中失去了妻子(母亲),对英国人也没有好脸色。不过刘易斯坚持这样安排,大家只好别别扭扭的住在同一个屋檐下。

  二战后的德国非常混乱,占领军与德国人的矛盾一直存在,还有些德国人企图重新集结为纳粹招魂。然而,瑞切尔关心的却是她自己家的问题,丈夫整日忙于工作,无暇顾及自己孩子,她唯一可以交流的人就是那个德国鳏夫(其实她并不知道,丈夫之所以如此忘我工作,也是为了忘却丧子之痛),慢慢的,这两个一开始互相敌视的人相爱了……
  1. Video
  2. ID : 1
  3. Format : AVC
  4. Format/Info : Advanced Video Codec
  5. Format profile : High@L4.1
  6. Format settings : CABAC / 5 Ref Frames
  7. Format settings, CABAC : Yes
  8. Format settings, ReFrames : 5 frames
  9. Codec ID : V_MPEG4/ISO/AVC
  10. Duration : 1 h 48 min
  11. Bit rate : 10 000 kb/s
  12. Width : 1 920 pixels
  13. Height : 1 038 pixels
  14. Display aspect ratio : 1.85:1
  15. Frame rate mode : Constant
  16. Frame rate : 23.976 (24000/1001) FPS
  17. Color space : YUV
  18. Chroma subsampling : 4:2:0
  19. Bit depth : 8 bits
  20. Scan type : Progressive
  21. Bits/(Pixel*Frame) : 0.209
  22. Stream size : 7.58 GiB (94%)
  23. Title : The.Aftermath.2019.1080p.WEBRip.DDP5.1.x264-SWTYBLZ
  24. Writing library : x264 core 157 r2969 d4099dd
  25. Encoding settings : cabac=1 / ref=5 / deblock=1:-1:-1 / analyse=0x3:0x133 / me=umh / subme=10 / psy=1 / psy_rd=1.00:0.15 / mixed_ref=1 / me_range=48 / chroma_me=1 / trellis=2 / 8x8dct=1 / cqm=0 / deadzone=21,11 / fast_pskip=1 / chroma_qp_offset=-3 / threads=32 / lookahead_threads=5 / sliced_threads=0 / nr=0 / decimate=0 / interlaced=0 / bluray_compat=0 / constrained_intra=0 / bframes=8 / b_pyramid=2 / b_adapt=2 / b_bias=0 / direct=3 / weightb=1 / open_gop=0 / weightp=2 / keyint=250 / keyint_min=23 / scenecut=40 / intra_refresh=0 / rc_lookahead=60 / rc=2pass / mbtree=1 / bitrate=10000 / ratetol=1.0 / qcomp=0.60 / qpmin=0 / qpmax=69 / qpstep=4 / cplxblur=20.0 / qblur=0.5 / ip_ratio=1.40 / aq=1:1.00
  26. Language : English
  27. Default : Yes
  28. Forced : No

  29. Audio
  30. ID : 2
  31. Format : E-AC-3
  32. Format/Info : Enhanced AC-3
  33. Commercial name : Dolby Digital Plus
  34. Codec ID : A_EAC3
  35. Duration : 1 h 48 min
  36. Bit rate mode : Constant
  37. Bit rate : 640 kb/s
  38. Channel(s) : 6 channels
  39. Channel layout : L R C LFE Ls Rs
  40. Sampling rate : 48.0 kHz
  41. Frame rate : 31.250 FPS (1536 SPF)
  42. Compression mode : Lossy
  43. Stream size : 497 MiB (6%)
  44. Title : The.Aftermath.2019.1080p.WEBRip.DDP5.1.x264-SWTYBLZ
  45. Language : English
  46. Service kind : Complete Main
  47. Default : Yes
  48. Forced : No

  49. Text #1
  50. ID : 3
  51. Format : UTF-8
  52. Codec ID : S_TEXT/UTF8
  53. Codec ID/Info : UTF-8 Plain Text
  54. Duration : 1 h 18 min
  55. Bit rate : 2 b/s
  56. Count of elements : 61
  57. Stream size : 1.30 KiB (0%)
  58. Title : English (Forced)
  59. Language : English
  60. Default : Yes
  61. Forced : Yes

  62. Text #2
  63. ID : 4
  64. Format : UTF-8
  65. Codec ID : S_TEXT/UTF8
  66. Codec ID/Info : UTF-8 Plain Text
  67. Duration : 1 h 39 min
  68. Bit rate : 31 b/s
  69. Count of elements : 949
  70. Stream size : 22.8 KiB (0%)
  71. Title : English
  72. Language : English
  73. Default : No
  74. Forced : No

  75. Text #3
  76. ID : 5
  77. Format : UTF-8
  78. Codec ID : S_TEXT/UTF8
  79. Codec ID/Info : UTF-8 Plain Text
  80. Duration : 1 h 41 min
  81. Bit rate : 38 b/s
  82. Count of elements : 1126
  83. Stream size : 28.2 KiB (0%)
  84. Title : English (SDH)
  85. Language : English
  86. Default : No
  87. Forced : No

  88. Text #4
  89. ID : 6
  90. Format : UTF-8
  91. Codec ID : S_TEXT/UTF8
  92. Codec ID/Info : UTF-8 Plain Text
  93. Duration : 1 h 47 min
  94. Bit rate : 27 b/s
  95. Count of elements : 800
  96. Stream size : 21.8 KiB (0%)
  97. Title : Spanish
  98. Language : Spanish
  99. Default : No
  100. Forced : No
复制代码







游客,如果您要查看本帖隐藏内容请回复,您还可以免扣高清币免回复下载:https://www.85lou.com/plugin.php?id=wyfaka_url:url

回复

使用道具 举报

超级明星

高清币
310
金钱
7808
鲜花
0
在线时间
776 小时
最后登录
2019-6-27
发表于 2019-6-11 22:38:31 | 显示全部楼层
◎译  名 余波/情,敌(台)/敌人妻(港)
◎片  名 The Aftermath
◎年  代 2019
◎国  家 英国/美国/德国
◎类  别 剧情/爱情/战争
◎语  言 英语
◎IMDb评分 6.3/10 from 2353 users
◎IMDB链接 https://www.imdb.com/title/tt5977276/
◎片  长 1 h 49 min
◎导  演 詹姆斯·肯特 James Kent
◎主  演 亚历山大·斯卡斯加德 Alexander Skarsgård
       凯拉·奈特莉 Keira Knightley
       杰森·克拉克 Jason Clarke
       凯特·菲利普斯 Kate Phillips
回复 支持 反对

使用道具 举报

金鸡奖主角

高清币
272
金钱
3864
鲜花
0
在线时间
1282 小时
最后登录
2019-6-27
发表于 2019-6-11 22:39:55 | 显示全部楼层
楼主发贴辛苦了,谢谢楼主分享!我觉得中国高清论坛是注册对了!
回复 支持 反对

使用道具 举报

永恒神话

高清币
16686
金钱
24991
鲜花
0
在线时间
3723 小时
最后登录
2019-6-27
发表于 2019-6-11 22:41:19 | 显示全部楼层
楼主发贴辛苦了,谢谢楼主分享!我觉得中国高清论坛是注册对了!
回复 支持 反对

使用道具 举报

金鸡奖主角

高清币
202
金钱
5313
鲜花
0
在线时间
1560 小时
最后登录
2019-6-26
发表于 2019-6-11 22:43:16 | 显示全部楼层

这个帖子不回对不起自己!我想我是一天也不能离开中国高清论坛
回复 支持 反对

使用道具 举报

天王巨星

高清币
71
金钱
2987
鲜花
0
在线时间
654 小时
最后登录
2019-6-27
发表于 2019-6-11 22:48:00 | 显示全部楼层

楼主太厉害了!楼主,电影应该很好看我觉得中国高清论坛真是个好地方!
回复 支持 反对

使用道具 举报

永恒神话

高清币
10153
金钱
15678
鲜花
0
在线时间
1550 小时
最后登录
2019-6-25
发表于 2019-6-11 22:54:47 | 显示全部楼层
楼主发贴辛苦了,谢谢楼主分享!我觉得中国高清论坛是注册对了!
回复 支持 反对

使用道具 举报

天王巨星

高清币
17
金钱
2015
鲜花
0
在线时间
285 小时
最后登录
2019-6-11
发表于 2019-6-11 22:58:25 | 显示全部楼层

楼主,我太崇拜你了!我想我是一天也不能离开中国高清论坛
回复 支持 反对

使用道具 举报

人气偶像

高清币
2
金钱
1914
鲜花
0
在线时间
421 小时
最后登录
2019-6-26
发表于 2019-6-11 23:01:47 | 显示全部楼层
楼主发贴辛苦了,谢谢楼主分享!我觉得中国高清论坛是注册对了!
回复 支持 反对

使用道具 举报

懒得打字嘛,点击右侧快捷回复 【右侧内容,后台自定义】
您需要登录后才可以回帖 登录 | 立即注册

本版积分规则

QQ|手机版|小黑屋|中国高清论坛 ( 黔ICP备16007815号-1 )

GMT+8, 2019-6-27 21:16 , Processed in 0.058749 second(s), 29 queries .

Powered by Discuz! X3.4

© 2001-2017 Comsenz Inc.

快速回复 返回顶部 返回列表