请选择 进入手机版 | 继续访问电脑版

中国高清论坛

 找回密码
 立即注册
搜索
查看: 2326|回复: 451

[惊悚片] 我们/我们·异(港) Us.2019.1080p.BluRay.x264.TrueHD.7.1.Atmos-FGT 10.60 GiB

  [复制链接]

超级版主

高清币
17046
金钱
39535
鲜花
0
在线时间
12125 小时
最后登录
2019-9-16
发表于 2019-6-12 01:44:30 | 显示全部楼层 |阅读模式


◎译  名 我们/我们·异(港)
◎片  名 Us
◎年  代 2019
◎国  家 美国
◎类  别 惊悚/恐怖
◎语  言 英语
◎IMDb评分 7.1/10 from 102676 users
◎IMDB链接 https://www.imdb.com/title/tt6857112/
◎片  长 1h 56mn
◎导  演 乔丹·皮尔 Jordan Peele
◎主  演 露皮塔·尼永奥 Lupita Nyong'o
       温斯顿·杜克 Winston Duke
       伊丽莎白·莫斯 Elisabeth Moss
       蒂姆·海德克 Tim Heidecker


◎简  介 

  一对名为阿德莱德和盖博的夫妻带着孩子到海滨度假,这里曾经是阿莱德莱童年的娱乐场所。在海滨与泰勒一家玩了一天之后,阿德莱德愈发地无法从往昔的伤痛中走出,他越来越觉得自己的家庭将要发生灾难。到了晚上,他们一家甚至看到有四个人手拉手在行车道上站立,似乎有更多诡异的事情等待着他们。
  1. Video
  2. ID : 1
  3. Format : AVC
  4. Format/Info : Advanced Video Codec
  5. Format profile : [email]High@L4.1[/email]
  6. Format settings : CABAC / 5 Ref Frames
  7. Format settings, CABAC : Yes
  8. Format settings, ReFrames : 5 frames
  9. Codec ID : V_MPEG4/ISO/AVC
  10. Duration : 1 h 56 min
  11. Bit rate : 9 124 kb/s
  12. Width : 1 920 pixels
  13. Height : 808 pixels
  14. Display aspect ratio : 2.40:1
  15. Frame rate mode : Constant
  16. Frame rate : 23.976 (24000/1001) FPS
  17. Color space : YUV
  18. Chroma subsampling : 4:2:0
  19. Bit depth : 8 bits
  20. Scan type : Progressive
  21. Bits/(Pixel*Frame) : 0.245
  22. Stream size : 7.42 GiB (70%)
  23. Title : Us.2019.1080p.BluRay.x264.TrueHD.7.1.Atmos-FGT
  24. Writing library : x264 core 157 r2970 5493be8
  25. Encoding settings : cabac=1 / ref=5 / deblock=1:-3:-3 / analyse=0x3:0x113 / me=umh / subme=8 / psy=1 / psy_rd=1.00:0.00 / mixed_ref=1 / me_range=16 / chroma_me=1 / trellis=1 / 8x8dct=1 / cqm=0 / deadzone=21,11 / fast_pskip=1 / chroma_qp_offset=-2 / threads=25 / lookahead_threads=4 / sliced_threads=0 / nr=0 / decimate=1 / interlaced=0 / bluray_compat=0 / constrained_intra=0 / bframes=3 / b_pyramid=2 / b_adapt=1 / b_bias=0 / direct=3 / weightb=1 / open_gop=0 / weightp=2 / keyint=250 / keyint_min=23 / scenecut=40 / intra_refresh=0 / rc_lookahead=50 / rc=2pass / mbtree=1 / bitrate=9124 / ratetol=1.0 / qcomp=0.60 / qpmin=0 / qpmax=69 / qpstep=4 / cplxblur=20.0 / qblur=0.5 / ip_ratio=1.40 / aq=1:1.00
  26. Language : English
  27. Default : Yes
  28. Forced : No

  29. Audio #1
  30. ID : 2
  31. Format : MLP FBA 16-ch
  32. Format/Info : Meridian Lossless Packing FBA with 16-channel presentation
  33. Commercial name : Dolby TrueHD with Dolby Atmos
  34. Codec ID : A_TRUEHD
  35. Duration : 1 h 56 min
  36. Bit rate mode : Variable
  37. Bit rate : 3 177 kb/s
  38. Maximum bit rate : 4 872 kb/s
  39. Channel(s) : 8 channels
  40. Channel layout : L R C LFE Ls Rs Lb Rb
  41. Sampling rate : 48.0 kHz
  42. Frame rate : 1 200.000 FPS (40 SPF)
  43. Compression mode : Lossless
  44. Stream size : 2.58 GiB (24%)
  45. Title : Us.2019.1080p.BluRay.x264.TrueHD.7.1.Atmos-FGT
  46. Language : English
  47. Default : Yes
  48. Forced : No
  49. Number of dynamic objects : 11
  50. Bed channel count : 1 channel
  51. Bed channel configuration : LFE

  52. Audio #2
  53. ID : 3
  54. Format : AC-3
  55. Format/Info : Audio Coding 3
  56. Commercial name : Dolby Digital
  57. Codec ID : A_AC3
  58. Duration : 1 h 56 min
  59. Bit rate mode : Constant
  60. Bit rate : 640 kb/s
  61. Channel(s) : 6 channels
  62. Channel layout : L R C LFE Ls Rs
  63. Sampling rate : 48.0 kHz
  64. Frame rate : 31.250 FPS (1536 SPF)
  65. Bit depth : 16 bits
  66. Compression mode : Lossy
  67. Stream size : 533 MiB (5%)
  68. Title : Us.2019.1080p.BluRay.x264.TrueHD.7.1.Atmos-FGT
  69. Language : English
  70. Service kind : Complete Main
  71. Default : No
  72. Forced : No

  73. Text #1
  74. ID : 4
  75. Format : UTF-8
  76. Codec ID : S_TEXT/UTF8
  77. Codec ID/Info : UTF-8 Plain Text
  78. Duration : 1 h 52 min
  79. Bit rate : 41 b/s
  80. Count of elements : 1066
  81. Stream size : 34.3 KiB (0%)
  82. Title : English-SRT
  83. Language : English
  84. Default : Yes
  85. Forced : No

  86. Text #2
  87. ID : 5
  88. Format : PGS
  89. Muxing mode : zlib
  90. Codec ID : S_HDMV/PGS
  91. Codec ID/Info : Picture based subtitle format used on BDs/HD-DVDs
  92. Duration : 1 h 53 min
  93. Bit rate : 35.4 kb/s
  94. Count of elements : 2751
  95. Stream size : 28.8 MiB (0%)
  96. Title : English-PGS
  97. Language : English
  98. Default : No
  99. Forced : No

  100. Menu
  101. 00:00:00.000 : en:Chapter 01
  102. 00:06:05.156 : en:Chapter 02
  103. 00:11:25.351 : en:Chapter 03
  104. 00:17:12.114 : en:Chapter 04
  105. 00:23:24.653 : en:Chapter 05
  106. 00:29:31.520 : en:Chapter 06
  107. 00:36:07.791 : en:Chapter 07
  108. 00:41:07.757 : en:Chapter 08
  109. 00:48:08.302 : en:Chapter 09
  110. 00:55:43.257 : en:Chapter 10
  111. 01:03:00.318 : en:Chapter 11
  112. 01:07:49.357 : en:Chapter 12
  113. 01:14:25.294 : en:Chapter 13
  114. 01:20:12.016 : en:Chapter 14
  115. 01:25:25.954 : en:Chapter 15
  116. 01:29:44.045 : en:Chapter 16
  117. 01:35:21.674 : en:Chapter 17
  118. 01:40:54.548 : en:Chapter 18
  119. 01:47:36.909 : en:Chapter 19
  120. 01:52:14.394 : en:Chapter 20
复制代码







游客,如果您要查看本帖隐藏内容请回复,您还可以免扣高清币免回复下载:https://www.85lou.com/plugin.php?id=wyfaka_url:url


回复

使用道具 举报

金鸡奖主角

高清币
51
金钱
3479
鲜花
0
在线时间
681 小时
最后登录
2019-9-15
发表于 2019-6-12 02:39:41 | 显示全部楼层

我看不错噢 谢谢楼主!中国高清论坛越来越好!
回复 支持 0 反对 1

使用道具 举报

金鸡奖主角

高清币
75
金钱
4234
鲜花
0
在线时间
542 小时
最后登录
2019-9-17
发表于 2019-6-12 02:03:09 | 显示全部楼层

这个帖子不回对不起自己!我想我是一天也不能离开中国高清论坛
回复 支持 反对

使用道具 举报

超级明星

高清币
520
金钱
9375
鲜花
0
在线时间
904 小时
最后登录
2019-9-17
发表于 2019-6-12 02:15:34 | 显示全部楼层
楼主发贴辛苦了,谢谢楼主分享!我觉得中国高清论坛是注册对了!
回复 支持 反对

使用道具 举报

天王巨星

高清币
155
金钱
3097
鲜花
0
在线时间
1572 小时
最后登录
2019-9-17
发表于 2019-6-12 02:16:19 | 显示全部楼层
nvcvcnfdhdhdhdhdfhdfhd
回复 支持 反对

使用道具 举报

金鸡奖主角

高清币
80
金钱
4175
鲜花
0
在线时间
958 小时
最后登录
2019-9-17
发表于 2019-6-12 02:18:30 | 显示全部楼层

论坛不能没有像楼主这样的人才啊!我会一直支持中国高清论坛
回复 支持 反对

使用道具 举报

金鸡奖主角

高清币
80
金钱
4175
鲜花
0
在线时间
958 小时
最后登录
2019-9-17
发表于 2019-6-12 02:18:53 | 显示全部楼层

楼主太厉害了!楼主,电影应该很好看我觉得中国高清论坛真是个好地方!
回复 支持 反对

使用道具 举报

天王巨星

高清币
155
金钱
3097
鲜花
0
在线时间
1572 小时
最后登录
2019-9-17
发表于 2019-6-12 02:19:21 | 显示全部楼层
fsdaaaaaaaaaaaaaaaaaaaaa
回复 支持 反对

使用道具 举报

金鸡奖主角

高清币
307
金钱
3374
鲜花
0
在线时间
425 小时
最后登录
2019-9-14
发表于 2019-6-12 02:21:41 | 显示全部楼层
楼主发贴辛苦了,谢谢楼主分享!我觉得中国高清论坛是注册对了!
回复 支持 反对

使用道具 举报

金鸡奖主角

高清币
307
金钱
3374
鲜花
0
在线时间
425 小时
最后登录
2019-9-14
发表于 2019-6-12 02:30:29 | 显示全部楼层

楼主太厉害了!楼主,电影应该很好看我觉得中国高清论坛真是个好地方!
回复 支持 反对

使用道具 举报

懒得打字嘛,点击右侧快捷回复 【右侧内容,后台自定义】
您需要登录后才可以回帖 登录 | 立即注册

本版积分规则

QQ|手机版|小黑屋|中国高清论坛 ( 黔ICP备16007815号-1 )

GMT+8, 2019-9-17 20:30 , Processed in 0.081657 second(s), 27 queries .

Powered by Discuz! X3.4

© 2001-2017 Comsenz Inc.

快速回复 返回顶部 返回列表