请选择 进入手机版 | 继续访问电脑版

中国高清论坛

 找回密码
 立即注册
搜索
查看: 991|回复: 224

[传记片] 教授与疯子 The.Professor.and.the.Madman.2019.1080p.BluRay.x264.DTS-HD.MA.5.1-FGT

  [复制链接]

超级版主

高清币
16103
金钱
37483
鲜花
0
在线时间
11683 小时
最后登录
2019-6-24
发表于 2019-6-12 17:13:02 | 显示全部楼层 |阅读模式


◎译  名 教授与疯子/牛津解密(台)
◎片  名 The Professor and the Madman
◎年  代 2019
◎国  家 爱尔兰
◎类  别 传记/剧情
◎语  言 英语
◎IMDb评分 7.6/10 from 1545 users
◎IMDB链接 https://www.imdb.com/title/tt5932728/
◎片  长 2 h 4 min
◎导  演 法尔哈德·撒夫尼亚 Farhad Safinia
◎主  演 梅尔·吉布森 Mel Gibson
       西恩·潘 Sean Penn
       娜塔莉·多默尔 Natalie Dormer
       詹妮弗·艾莉 Jennifer Ehle
       斯蒂芬·迪兰 Stephen Dillane

◎简  介 



  影片故事根据真实事件改编,詹姆斯·默里博士(梅尔·吉布森饰演)领导下的编委会要进行新版本的《牛津英语字典》的编辑,以当时的人力科技水平,完成字典的编撰要一个世纪才能完成,詹姆斯·默里博士开创性的采用了全民参与的方式,让全英使用英语的人一起为字典收集词条定义,并通过寄信的方式发送给编撰组。

  在收集定义过程中,他们发现了一个叫W.C.迈纳(西恩·潘饰演)的医生独自贡献了一万多条引语,这是一个专业语言学者都很难完成的工作量。当编委会决定向他致敬时,一个惊人的事实曝光了:原来迈纳医生,是美国内战时期部队的一个军医,因为患有精神分裂症而犯杀人罪,被禁闭在精神病院,是一个被认为是疯子的人。

  一位教授、一个疯子,人类历史上最早的英语大词典就这样在两个迥然不同的人手中诞生。
  1. Video
  2. ID : 1
  3. Format : AVC
  4. Format/Info : Advanced Video Codec
  5. Format profile : High@L4.1
  6. Format settings : CABAC / 5 Ref Frames
  7. Format settings, CABAC : Yes
  8. Format settings, ReFrames : 5 frames
  9. Codec ID : V_MPEG4/ISO/AVC
  10. Duration : 2 h 4 min
  11. Bit rate : 11.0 Mb/s
  12. Width : 1 920 pixels
  13. Height : 808 pixels
  14. Display aspect ratio : 2.40:1
  15. Frame rate mode : Constant
  16. Frame rate : 23.976 (24000/1001) FPS
  17. Color space : YUV
  18. Chroma subsampling : 4:2:0
  19. Bit depth : 8 bits
  20. Scan type : Progressive
  21. Bits/(Pixel*Frame) : 0.297
  22. Stream size : 9.61 GiB (86%)
  23. Title : The.Professor.and.the.Madman.2019.1080p.BluRay.x264.DTS-HD.MA.5.1-FGT
  24. Writing library : x264 core 157 r2969 d4099dd
  25. Encoding settings : cabac=1 / ref=5 / deblock=1:0:0 / analyse=0x3:0x133 / me=umh / subme=7 / psy=1 / psy_rd=1.00:0.00 / mixed_ref=1 / me_range=16 / chroma_me=1 / trellis=1 / 8x8dct=1 / cqm=0 / deadzone=21,11 / fast_pskip=0 / chroma_qp_offset=-2 / threads=18 / lookahead_threads=3 / sliced_threads=0 / nr=0 / decimate=1 / interlaced=0 / bluray_compat=0 / constrained_intra=0 / bframes=3 / b_pyramid=2 / b_adapt=1 / b_bias=0 / direct=1 / weightb=1 / open_gop=0 / weightp=2 / keyint=240 / keyint_min=23 / scenecut=40 / intra_refresh=0 / rc_lookahead=40 / rc=2pass / mbtree=1 / bitrate=11040 / ratetol=1.0 / qcomp=0.60 / qpmin=10 / qpmax=51 / qpstep=4 / cplxblur=20.0 / qblur=0.5 / ip_ratio=1.40 / aq=1:1.00
  26. Default : Yes
  27. Forced : No

  28. Audio
  29. ID : 2
  30. Format : DTS XLL
  31. Format/Info : Digital Theater Systems
  32. Commercial name : DTS-HD Master Audio
  33. Codec ID : A_DTS
  34. Duration : 2 h 4 min
  35. Bit rate mode : Variable
  36. Bit rate : 1 853 kb/s
  37. Channel(s) : 6 channels
  38. Channel layout : C L R Ls Rs LFE
  39. Sampling rate : 48.0 kHz
  40. Frame rate : 93.750 FPS (512 SPF)
  41. Bit depth : 16 bits
  42. Compression mode : Lossless
  43. Stream size : 1.61 GiB (14%)
  44. Title : The.Professor.and.the.Madman.2019.1080p.BluRay.x264.DTS-HD.MA.5.1-FGT
  45. Language : English
  46. Default : Yes
  47. Forced : No

  48. Text #1
  49. ID : 3
  50. Format : UTF-8
  51. Codec ID : S_TEXT/UTF8
  52. Codec ID/Info : UTF-8 Plain Text
  53. Duration : 1 h 56 min
  54. Bit rate : 65 b/s
  55. Count of elements : 1581
  56. Stream size : 55.9 KiB (0%)
  57. Title : English-SRT
  58. Language : English
  59. Default : Yes
  60. Forced : No

  61. Text #2
  62. ID : 4
  63. Format : PGS
  64. Muxing mode : zlib
  65. Codec ID : S_HDMV/PGS
  66. Codec ID/Info : Picture based subtitle format used on BDs/HD-DVDs
  67. Duration : 1 h 57 min
  68. Bit rate : 35.6 kb/s
  69. Count of elements : 3358
  70. Stream size : 29.9 MiB (0%)
  71. Title : English-PGS
  72. Language : English
  73. Default : No
  74. Forced : No

  75. Menu
  76. 00:00:00.000 : en:Chapter 01
  77. 00:15:11.327 : en:Chapter 02
  78. 00:42:26.335 : en:Chapter 03
  79. 01:05:14.201 : en:Chapter 04
  80. 01:26:20.550 : en:Chapter 05
  81. 01:45:36.246 : en:Chapter 06
复制代码






游客,如果您要查看本帖隐藏内容请回复,您还可以免扣高清币免回复下载:https://www.85lou.com/plugin.php?id=wyfaka_url:url
回复

使用道具 举报

影坛巨星

高清币
82
金钱
8973
鲜花
0
在线时间
3040 小时
最后登录
2019-6-24
发表于 2019-6-12 17:16:41 | 显示全部楼层

既然你诚信诚意的推荐了,那我就勉为其难的看看吧!中国高清论坛不走平凡路。
回复 支持 反对

使用道具 举报

永恒神话

高清币
12692
金钱
17955
鲜花
0
在线时间
1506 小时
最后登录
2019-6-24
发表于 2019-6-12 17:21:07 | 显示全部楼层

这东西我收了!谢谢楼主!中国高清论坛真好!
回复 支持 反对

使用道具 举报

天王巨星

高清币
163
金钱
2396
鲜花
0
在线时间
308 小时
最后登录
2019-6-22
发表于 2019-6-12 17:24:52 | 显示全部楼层
这个帖子不回对不起自己!
回复 支持 反对

使用道具 举报

永恒神话

高清币
6203
金钱
13677
鲜花
0
在线时间
1653 小时
最后登录
2019-6-24
发表于 2019-6-12 17:25:29 | 显示全部楼层
楼主发贴辛苦了,谢谢楼主分享!我觉得中国高清论坛是注册对了!
回复 支持 反对

使用道具 举报

永恒神话

高清币
6203
金钱
13677
鲜花
0
在线时间
1653 小时
最后登录
2019-6-24
发表于 2019-6-12 17:27:39 | 显示全部楼层

楼主太厉害了!楼主,电影应该很好看我觉得中国高清论坛真是个好地方!
回复 支持 反对

使用道具 举报

永恒神话

高清币
6203
金钱
13677
鲜花
0
在线时间
1653 小时
最后登录
2019-6-24
发表于 2019-6-12 17:27:57 | 显示全部楼层
楼主发贴辛苦了,谢谢楼主分享!我觉得中国高清论坛是注册对了!
回复 支持 反对

使用道具 举报

永恒神话

高清币
6203
金钱
13677
鲜花
0
在线时间
1653 小时
最后登录
2019-6-24
发表于 2019-6-12 17:28:17 | 显示全部楼层

楼主太厉害了!楼主,电影应该很好看我觉得中国高清论坛真是个好地方!
回复 支持 反对

使用道具 举报

永恒神话

高清币
6203
金钱
13677
鲜花
0
在线时间
1653 小时
最后登录
2019-6-24
发表于 2019-6-12 17:28:51 | 显示全部楼层
楼主发贴辛苦了,谢谢楼主分享!我觉得中国高清论坛是注册对了!
回复 支持 反对

使用道具 举报

懒得打字嘛,点击右侧快捷回复 【右侧内容,后台自定义】
您需要登录后才可以回帖 登录 | 立即注册

本版积分规则

QQ|手机版|小黑屋|中国高清论坛 ( 黔ICP备16007815号-1 )

GMT+8, 2019-6-24 23:11 , Processed in 0.051833 second(s), 29 queries .

Powered by Discuz! X3.4

© 2001-2017 Comsenz Inc.

快速回复 返回顶部 返回列表