请选择 进入手机版 | 继续访问电脑版

中国高清论坛

 找回密码
 立即注册
搜索
查看: 2666|回复: 835

[惊悚片] 孟买酒店/失控危城(台).2018.1080p.BluRay.x264.DTS-HD.MA.5.1-FGT

  [复制链接]

超级版主

高清币
16103
金钱
37483
鲜花
0
在线时间
11683 小时
最后登录
2019-6-24
发表于 2019-6-12 17:16:42 | 显示全部楼层 |阅读模式



◎译  名 孟买酒店/失控危城(台)
◎年  代 2018
◎国  家 澳大利亚/美国/印度
◎类  别 剧情/惊悚/历史
◎语  言 英语
◎IMDb评分 7.8/10 from 6952 users
◎IMDB链接 http://www.imdb.com/title/tt5461944
◎片  长 2 h 2 min
◎导  演 安东尼·马拉斯 Anthony Maras
◎主  演 艾米·汉莫 Armie Hammer
      纳赞宁·波妮阿蒂 Nazanin Boniadi
      戴夫·帕特尔 Dev Patel
      詹森·艾萨克 Jason Isaacs
      阿努潘·凯尔 Anupam Kher
      刘承羽 Natasha Liu Bordizzo
      安格斯·麦克拉伦 Angus McLaren
      萨钦·乔伯 Sachin Joab
      蒂尔达·格哈姆-哈维 Tilda Cobham-Hervey
      维品·沙尔马 Vipin Sharma
      阿布罗伊·辛格 Abhiroy Singh
      迪维亚·阿妮 Divya Unny
      桑迪普·博雅卡 Sandeep Bhojak
      Zenia Starr




◎简  介

  影片真实再现震惊世界的“印度9·11”孟买恐袭事件,2008年11月,著名的泰姬陵酒店意外遭到恐怖分子入侵,恐怖分子无差别行凶,让整个酒店陷入绝望之境,百余名酒店住客及员工被困,无人得知何时能等来救援,一场与死神的赛跑就此开启…
  1. Video
  2. ID : 1
  3. Format : AVC
  4. Format/Info : Advanced Video Codec
  5. Format profile : High@L4.1
  6. Format settings : CABAC / 5 Ref Frames
  7. Format settings, CABAC : Yes
  8. Format settings, ReFrames : 5 frames
  9. Codec ID : V_MPEG4/ISO/AVC
  10. Duration : 2 h 2 min
  11. Bit rate : 11.2 Mb/s
  12. Width : 1 920 pixels
  13. Height : 808 pixels
  14. Display aspect ratio : 2.40:1
  15. Frame rate mode : Constant
  16. Frame rate : 23.976 (24000/1001) FPS
  17. Color space : YUV
  18. Chroma subsampling : 4:2:0
  19. Bit depth : 8 bits
  20. Scan type : Progressive
  21. Bits/(Pixel*Frame) : 0.302
  22. Stream size : 9.63 GiB (73%)
  23. Title : Hotel.Mumbai.2018.1080p.BluRay.x264.DTS-HD.MA.5.1-FGT
  24. Writing library : x264 core 157 r2970 5493be8
  25. Encoding settings : cabac=1 / ref=5 / deblock=1:-3:-3 / analyse=0x3:0x113 / me=umh / subme=8 / psy=1 / psy_rd=1.00:0.00 / mixed_ref=1 / me_range=32 / chroma_me=1 / trellis=2 / 8x8dct=1 / cqm=0 / deadzone=21,11 / fast_pskip=1 / chroma_qp_offset=-2 / threads=25 / lookahead_threads=4 / sliced_threads=0 / nr=0 / decimate=1 / interlaced=0 / bluray_compat=0 / constrained_intra=0 / bframes=3 / b_pyramid=2 / b_adapt=2 / b_bias=0 / direct=3 / weightb=1 / open_gop=0 / weightp=2 / keyint=240 / keyint_min=24 / scenecut=40 / intra_refresh=0 / rc_lookahead=50 / rc=2pass / mbtree=1 / bitrate=11226 / ratetol=1.0 / qcomp=0.60 / qpmin=0 / qpmax=69 / qpstep=4 / cplxblur=20.0 / qblur=0.5 / ip_ratio=1.40 / aq=3:0.80
  26. Default : Yes
  27. Forced : No

  28. Audio
  29. ID : 2
  30. Format : DTS XLL
  31. Format/Info : Digital Theater Systems
  32. Commercial name : DTS-HD Master Audio
  33. Codec ID : A_DTS
  34. Duration : 2 h 2 min
  35. Bit rate mode : Variable
  36. Bit rate : 4 141 kb/s
  37. Channel(s) : 6 channels
  38. Channel layout : C L R Ls Rs LFE
  39. Sampling rate : 48.0 kHz
  40. Frame rate : 93.750 FPS (512 SPF)
  41. Bit depth : 24 bits
  42. Compression mode : Lossless
  43. Stream size : 3.55 GiB (27%)
  44. Title : Hotel.Mumbai.2018.1080p.BluRay.x264.DTS-HD.MA.5.1-FGT
  45. Language : English
  46. Default : Yes
  47. Forced : No

  48. Text #1
  49. ID : 3
  50. Format : UTF-8
  51. Codec ID : S_TEXT/UTF8
  52. Codec ID/Info : UTF-8 Plain Text
  53. Duration : 1 h 52 min
  54. Bit rate : 33 b/s
  55. Count of elements : 915
  56. Stream size : 27.9 KiB (0%)
  57. Title : English-SRT
  58. Language : English
  59. Default : Yes
  60. Forced : No

  61. Text #2
  62. ID : 4
  63. Format : UTF-8
  64. Codec ID : S_TEXT/UTF8
  65. Codec ID/Info : UTF-8 Plain Text
  66. Duration : 1 h 55 min
  67. Bit rate : 39 b/s
  68. Count of elements : 1124
  69. Stream size : 33.0 KiB (0%)
  70. Title : English-SDH-SRT
  71. Language : English
  72. Default : No
  73. Forced : No

  74. Text #3
  75. ID : 5
  76. Format : PGS
  77. Muxing mode : zlib
  78. Codec ID : S_HDMV/PGS
  79. Codec ID/Info : Picture based subtitle format used on BDs/HD-DVDs
  80. Duration : 1 h 55 min
  81. Bit rate : 31.0 kb/s
  82. Count of elements : 2248
  83. Stream size : 25.5 MiB (0%)
  84. Title : English-PGS
  85. Language : English
  86. Default : No
  87. Forced : No

  88. Menu
  89. 00:00:00.000 : en:Chapter 01
  90. 00:06:39.023 : en:Chapter 02
  91. 00:15:51.951 : en:Chapter 03
  92. 00:24:23.378 : en:Chapter 04
  93. 00:36:02.827 : en:Chapter 05
  94. 00:48:46.965 : en:Chapter 06
  95. 01:00:39.302 : en:Chapter 07
  96. 01:15:30.442 : en:Chapter 08
  97. 01:27:50.890 : en:Chapter 09
  98. 01:37:14.495 : en:Chapter 10
  99. 01:46:32.469 : en:Chapter 11
  100. 01:55:33.259 : en:Chapter 12
复制代码







游客,如果您要查看本帖隐藏内容请回复,您还可以免扣高清币免回复下载:https://www.85lou.com/plugin.php?id=wyfaka_url:url

回复

使用道具 举报

永恒神话

高清币
12692
金钱
17955
鲜花
0
在线时间
1506 小时
最后登录
2019-6-24
发表于 2019-6-12 17:20:03 | 显示全部楼层

楼主太厉害了!楼主,电影应该很好看我觉得中国高清论坛真是个好地方!
回复 支持 反对

使用道具 举报

天王巨星

高清币
3
金钱
2075
鲜花
0
在线时间
508 小时
最后登录
2019-6-24
发表于 2019-6-12 17:20:58 | 显示全部楼层
舒服吊 猛片 好牛B淡定淡定淡定淡定淡定淡定淡定
回复 支持 反对

使用道具 举报

影坛巨星

高清币
82
金钱
8973
鲜花
0
在线时间
3040 小时
最后登录
2019-6-24
发表于 2019-6-12 17:22:38 | 显示全部楼层

我看不错噢 谢谢楼主!中国高清论坛越来越好!
回复 支持 反对

使用道具 举报

人气偶像

高清币
5
金钱
1239
鲜花
0
在线时间
657 小时
最后登录
2019-6-24
发表于 2019-6-12 17:23:43 | 显示全部楼层
顶顶顶顶顶顶顶顶顶顶顶顶顶顶
回复 支持 反对

使用道具 举报

天王巨星

高清币
163
金钱
2396
鲜花
0
在线时间
308 小时
最后登录
2019-6-22
发表于 2019-6-12 17:24:21 | 显示全部楼层
这个帖子不回对不起自己!
回复 支持 反对

使用道具 举报

永恒神话

高清币
6203
金钱
13677
鲜花
0
在线时间
1653 小时
最后登录
2019-6-24
发表于 2019-6-12 17:24:37 | 显示全部楼层
楼主发贴辛苦了,谢谢楼主分享!我觉得中国高清论坛是注册对了!
回复 支持 反对

使用道具 举报

天王巨星

高清币
11
金钱
3165
鲜花
0
在线时间
658 小时
最后登录
2019-6-23
发表于 2019-6-12 17:26:14 | 显示全部楼层
这个帖子不回对不起自己
回复 支持 反对

使用道具 举报

永恒神话

高清币
6203
金钱
13677
鲜花
0
在线时间
1653 小时
最后登录
2019-6-24
发表于 2019-6-12 17:29:17 | 显示全部楼层

楼主太厉害了!楼主,电影应该很好看我觉得中国高清论坛真是个好地方!
回复 支持 反对

使用道具 举报

永恒神话

高清币
6203
金钱
13677
鲜花
0
在线时间
1653 小时
最后登录
2019-6-24
发表于 2019-6-12 17:30:13 | 显示全部楼层
楼主发贴辛苦了,谢谢楼主分享!我觉得中国高清论坛是注册对了!
回复 支持 反对

使用道具 举报

懒得打字嘛,点击右侧快捷回复 【右侧内容,后台自定义】
您需要登录后才可以回帖 登录 | 立即注册

本版积分规则

QQ|手机版|小黑屋|中国高清论坛 ( 黔ICP备16007815号-1 )

GMT+8, 2019-6-24 23:37 , Processed in 0.053219 second(s), 29 queries .

Powered by Discuz! X3.4

© 2001-2017 Comsenz Inc.

快速回复 返回顶部 返回列表