请选择 进入手机版 | 继续访问电脑版

中国高清论坛

 找回密码
 立即注册
搜索
查看: 2155|回复: 295

[剧情片] 最后的审判 Une.Intime.Conviction.2018.FRENCH.1080p.BluRay.DTS.x264-LOST 7.94 GiB

  [复制链接]

超级版主

高清币
17046
金钱
39535
鲜花
0
在线时间
12125 小时
最后登录
2019-9-16
发表于 2019-6-12 17:32:54 | 显示全部楼层 |阅读模式


◎译  名 最后的审判
◎片  名 Une intime conviction
◎年  代 2018
◎国  家 法国
◎类  别 剧情
◎语  言 法语
◎IMDb评分 7.0/10 from 234 users
◎IMDB链接 https://www.imdb.com/title/tt7799386/
◎片  长 1 h 50 min
◎导  演 Antoine Raimbault
◎主  演 奥利维埃·古尔梅 Olivier Gourmet
       玛琳娜·佛伊丝 Marina Foïs
       洛朗·吕卡 Laurent Lucas
       让·本奎 Jean Benguigui


◎简  介 


  Since Nora attended the trial of Jacques Viguier, accused of the murder of his wife, she is convinced of his innocence. She convinces a tenor of the bar to defend him for his second trial, on appeal.

  1. General
  2. Complete name                  : E:\迅雷下载\[ Torrent9.cz ] Une.Intime.Conviction.2018.FRENCH.1080p.BluRay.DTS.x264-LOST.mkv
  3. Format                         : Matroska
  4. Format version                 : Version 2
  5. File size                      : 7.94 GiB
  6. Duration                       : 1 h 50 min
  7. Overall bit rate               : 10.3 Mb/s
  8. Writing application            : mkvmerge v6.6.0 ('The Edge Of The In Between') built on Dec 1 2013 17:55:00
  9. Writing library                : libebml v1.3.0 + libmatroska v1.4.1
  10. FileExtension_Invalid          : mkv mk3d mka mks

  11. Video
  12. ID                             : 1
  13. Format                         : AVC
  14. Format/Info                    : Advanced Video Codec
  15. Format profile                 : High@L4.1
  16. Format settings                : CABAC / 5 Ref Frames
  17. Format settings, CABAC         : Yes
  18. Format settings, ReFrames      : 5 frames
  19. Codec ID                       : V_MPEG4/ISO/AVC
  20. Duration                       : 1 h 50 min
  21. Bit rate                       : 8 818 kb/s
  22. Width                          : 1 920 pixels
  23. Height                         : 808 pixels
  24. Display aspect ratio           : 2.40:1
  25. Frame rate mode                : Constant
  26. Frame rate                     : 24.000 FPS
  27. Color space                    : YUV
  28. Chroma subsampling             : 4:2:0
  29. Bit depth                      : 8 bits
  30. Scan type                      : Progressive
  31. Bits/(Pixel*Frame)             : 0.237
  32. Stream size                    : 6.62 GiB (83%)
  33. Writing library                : x264 core 157 r2969 d4099dd
  34. Encoding settings              : cabac=1 / ref=5 / deblock=1:0:0 / analyse=0x3:0x113 / me=umh / subme=8 / psy=1 / psy_rd=1.00:0.00 / mixed_ref=1 / me_range=16 / chroma_me=1 / trellis=1 / 8x8dct=1 / cqm=0 / deadzone=21,11 / fast_pskip=1 / chroma_qp_offset=-2 / threads=18 / lookahead_threads=3 / sliced_threads=0 / nr=0 / decimate=1 / interlaced=0 / bluray_compat=0 / constrained_intra=0 / bframes=3 / b_pyramid=2 / b_adapt=2 / b_bias=0 / direct=3 / weightb=1 / open_gop=0 / weightp=2 / keyint=240 / keyint_min=24 / scenecut=40 / intra_refresh=0 / rc_lookahead=50 / rc=2pass / mbtree=1 / bitrate=8818 / ratetol=1.0 / qcomp=0.60 / qpmin=0 / qpmax=69 / qpstep=4 / cplxblur=20.0 / qblur=0.5 / ip_ratio=1.40 / aq=1:1.00
  35. Language                       : English
  36. Default                        : Yes
  37. Forced                         : No

  38. Audio
  39. ID                             : 2
  40. Format                         : DTS
  41. Format/Info                    : Digital Theater Systems
  42. Codec ID                       : A_DTS
  43. Duration                       : 1 h 50 min
  44. Bit rate mode                  : Constant
  45. Bit rate                       : 1 509 kb/s
  46. Channel(s)                     : 6 channels
  47. Channel layout                 : C L R Ls Rs LFE
  48. Sampling rate                  : 48.0 kHz
  49. Frame rate                     : 93.750 FPS (512 SPF)
  50. Bit depth                      : 24 bits
  51. Compression mode               : Lossy
  52. Stream size                    : 1.16 GiB (15%)
  53. Title                          : French DTS 1509kbps
  54. Language                       : French
  55. Default                        : Yes
  56. Forced                         : No

  57. Menu
  58. 00:00:00.000                   : en:00:00:00.000
  59. 00:04:35.875                   : en:00:04:35.875
  60. 00:14:31.917                   : en:00:14:31.917
  61. 00:24:21.000                   : en:00:24:21.000
  62. 00:29:57.250                   : en:00:29:57.250
  63. 00:36:18.208                   : en:00:36:18.208
  64. 00:51:17.750                   : en:00:51:17.750
  65. 01:05:42.750                   : en:01:05:42.750
  66. 01:12:08.708                   : en:01:12:08.708
  67. 01:24:19.792                   : en:01:24:19.792
  68. 01:30:38.125                   : en:01:30:38.125
  69. 01:42:38.917                   : en:01:42:38.917

复制代码

游客,如果您要查看本帖隐藏内容请回复,您还可以免扣高清币免回复下载:https://www.85lou.com/plugin.php?id=wyfaka_url:url
回复

使用道具 举报

影坛巨星

高清币
4083
金钱
5673
鲜花
0
在线时间
855 小时
最后登录
2019-9-17
发表于 2019-6-12 17:36:46 | 显示全部楼层

这个帖子不回对不起自己!我想我是一天也不能离开中国高清论坛
回复 支持 反对

使用道具 举报

永恒神话

高清币
9388
金钱
12726
鲜花
0
在线时间
1925 小时
最后登录
2019-9-17
发表于 2019-6-12 17:39:29 | 显示全部楼层

楼主太厉害了!楼主,电影应该很好看我觉得中国高清论坛真是个好地方!
回复 支持 反对

使用道具 举报

超级明星

高清币
2861
金钱
3591
鲜花
0
在线时间
324 小时
最后登录
2019-9-17
发表于 2019-6-12 17:39:57 | 显示全部楼层
多謝 ! 給大家分享 !

回复 支持 反对

使用道具 举报

金鸡奖主角

高清币
295
金钱
5740
鲜花
0
在线时间
1273 小时
最后登录
2019-9-13
发表于 2019-6-12 17:45:41 | 显示全部楼层
楼主发贴辛苦了,谢谢楼主分享!我觉得中国高清论坛是注册对了!
回复 支持 反对

使用道具 举报

永恒神话

高清币
39900
金钱
79208
鲜花
0
在线时间
6810 小时
最后登录
2019-9-17
发表于 2019-6-12 17:46:12 | 显示全部楼层

楼主太厉害了!楼主,电影应该很好看我觉得中国高清论坛真是个好地方!
回复 支持 反对

使用道具 举报

金鸡奖主角

高清币
32
金钱
4000
鲜花
0
在线时间
1799 小时
最后登录
2019-9-16
发表于 2019-6-12 17:46:47 | 显示全部楼层
感谢分享精彩电影
回复 支持 反对

使用道具 举报

永恒神话

高清币
9704
金钱
18699
鲜花
0
在线时间
868 小时
最后登录
2019-9-16
发表于 2019-6-12 17:48:28 | 显示全部楼层
楼主发贴辛苦了,谢谢楼主分享!我觉得中国高清论坛是注册对了!
回复 支持 反对

使用道具 举报

金鸡奖主角

高清币
277
金钱
3567
鲜花
0
在线时间
818 小时
最后登录
2019-9-17
发表于 2019-6-12 17:51:10 | 显示全部楼层

感谢楼主的无私分享!要想中国高清论坛好 就靠你我他
回复 支持 反对

使用道具 举报

影坛巨星

高清币
3009
金钱
9158
鲜花
0
在线时间
1173 小时
最后登录
2019-9-17
发表于 2019-6-12 17:51:37 | 显示全部楼层
楼主发贴辛苦了,谢谢楼主分享!我觉得中国高清论坛是注册对了!
回复 支持 反对

使用道具 举报

懒得打字嘛,点击右侧快捷回复 【右侧内容,后台自定义】
您需要登录后才可以回帖 登录 | 立即注册

本版积分规则

QQ|手机版|小黑屋|中国高清论坛 ( 黔ICP备16007815号-1 )

GMT+8, 2019-9-17 20:30 , Processed in 0.087205 second(s), 26 queries .

Powered by Discuz! X3.4

© 2001-2017 Comsenz Inc.

快速回复 返回顶部 返回列表