请选择 进入手机版 | 继续访问电脑版

中国高清论坛

 找回密码
 立即注册
搜索
查看: 1793|回复: 376

[犯罪片] 加密货币 Crypto.2019.MULTi.1080p.BluRay.DTS.x264-EXTREME 8.77 GiB

  [复制链接]

超级版主

高清币
16132
金钱
37547
鲜花
0
在线时间
11702 小时
最后登录
2019-6-27
发表于 2019-6-12 20:18:40 | 显示全部楼层 |阅读模式


◎译  名 加密货币
◎片  名 Crypto
◎年  代 2019
◎国  家 美国
◎类  别 犯罪/剧情/惊悚
◎语  言 英语
◎IMDb评分 5.0/10 from 506 users
◎IMDB链接 https://www.imdb.com/title/tt8563452/
◎片  长 1 h 45 min
◎导  演 约翰·斯托伯格 John Stalberg
◎主  演 Mareli Miniutti
       库尔特·拉塞尔 Kurt Russell
       阿丽克西斯·布莱德尔 Alexis Bledel
       卢克·海姆斯沃斯 Luke Hemsworth



◎简  介

  Demoted back to his hometown. A young Wall Street banker is drawn into investigating a tangled web of corruption and fraud in Upstate New York. Affecting both his personal life and business career.

  1. General
  2. Unique ID                      : 136438693345407146537456877942197482394 (0x66A522F23BEC958E7B06705F5168739A)
  3. Complete name                  : E:\迅雷下载\[ Torrent9.cz ] Crypto.2019.MULTi.1080p.BluRay.DTS.x264-EXTREME.mkv.bt.td
  4. Format                         : Matroska
  5. Format version                 : Version 4
  6. File size                      : 8.77 GiB
  7. Duration                       : 1 h 45 min
  8. Overall bit rate               : 11.9 Mb/s
  9. Encoded date                   : UTC 2019-06-11 17:24:19
  10. Writing application            : mkvmerge v33.0.0 ('A Little Bit of Madness') 64-bit
  11. Writing library                : libebml v1.3.7 + libmatroska v1.5.0
  12. FileExtension_Invalid          : mkv mk3d mka mks

  13. Video
  14. ID                             : 3
  15. Format                         : AVC
  16. Format/Info                    : Advanced Video Codec
  17. Format profile                 : High@L4.1
  18. Format settings                : CABAC / 5 Ref Frames
  19. Format settings, CABAC         : Yes
  20. Format settings, ReFrames      : 5 frames
  21. Codec ID                       : V_MPEG4/ISO/AVC
  22. Duration                       : 1 h 45 min
  23. Bit rate                       : 8 843 kb/s
  24. Width                          : 1 920 pixels
  25. Height                         : 728 pixels
  26. Display aspect ratio           : 2.637
  27. Frame rate mode                : Constant
  28. Frame rate                     : 23.976 (24000/1001) FPS
  29. Color space                    : YUV
  30. Chroma subsampling             : 4:2:0
  31. Bit depth                      : 8 bits
  32. Scan type                      : Progressive
  33. Bits/(Pixel*Frame)             : 0.264
  34. Stream size                    : 6.36 GiB (73%)
  35. Writing library                : x264 core 157 r2969 d4099dd
  36. Encoding settings              : cabac=1 / ref=5 / deblock=1:-3:-3 / analyse=0x3:0x133 / me=umh / subme=8 / psy=1 / psy_rd=1.00:0.00 / mixed_ref=1 / me_range=16 / chroma_me=1 / trellis=1 / 8x8dct=1 / cqm=0 / deadzone=21,11 / fast_pskip=0 / chroma_qp_offset=-2 / threads=23 / lookahead_threads=3 / sliced_threads=0 / nr=0 / decimate=1 / interlaced=0 / bluray_compat=0 / constrained_intra=0 / bframes=3 / b_pyramid=2 / b_adapt=1 / b_bias=0 / direct=3 / weightb=1 / open_gop=0 / weightp=2 / keyint=250 / keyint_min=23 / scenecut=40 / intra_refresh=0 / rc_lookahead=50 / rc=2pass / mbtree=1 / bitrate=8843 / ratetol=1.0 / qcomp=0.60 / qpmin=0 / qpmax=69 / qpstep=4 / cplxblur=20.0 / qblur=0.5 / vbv_maxrate=62500 / vbv_bufsize=78125 / nal_hrd=none / filler=0 / ip_ratio=1.40 / aq=1:1.00
  37. Default                        : Yes
  38. Forced                         : No

  39. Audio #1
  40. ID                             : 2
  41. Format                         : DTS
  42. Format/Info                    : Digital Theater Systems
  43. Codec ID                       : A_DTS
  44. Duration                       : 1 h 45 min
  45. Bit rate mode                  : Constant
  46. Bit rate                       : 1 509 kb/s
  47. Channel(s)                     : 6 channels
  48. Channel layout                 : C L R Ls Rs LFE
  49. Sampling rate                  : 48.0 kHz
  50. Frame rate                     : 93.750 FPS (512 SPF)
  51. Bit depth                      : 24 bits
  52. Compression mode               : Lossy
  53. Stream size                    : 1.12 GiB (13%)
  54. Language                       : French
  55. Default                        : Yes
  56. Forced                         : No

  57. Audio #2
  58. ID                             : 4
  59. Format                         : DTS
  60. Format/Info                    : Digital Theater Systems
  61. Codec ID                       : A_DTS
  62. Duration                       : 1 h 45 min
  63. Bit rate mode                  : Constant
  64. Bit rate                       : 1 509 kb/s
  65. Channel(s)                     : 6 channels
  66. Channel layout                 : C L R Ls Rs LFE
  67. Sampling rate                  : 48.0 kHz
  68. Frame rate                     : 93.750 FPS (512 SPF)
  69. Bit depth                      : 24 bits
  70. Compression mode               : Lossy
  71. Stream size                    : 1.12 GiB (13%)
  72. Language                       : English
  73. Default                        : No
  74. Forced                         : No

  75. Text
  76. ID                             : 1
  77. Format                         : UTF-8
  78. Codec ID                       : S_TEXT/UTF8
  79. Codec ID/Info                  : UTF-8 Plain Text
  80. Title                          : Forced
  81. Language                       : French
  82. Default                        : Yes
  83. Forced                         : Yes

  84. Menu
  85. 00:00:00.000                   : en:00:00:00.000
  86. 00:06:11.496                   : en:00:06:11.496
  87. 00:14:17.065                   : en:00:14:17.065
  88. 00:19:25.664                   : en:00:19:25.664
  89. 00:26:46.313                   : en:00:26:46.313
  90. 00:33:37.682                   : en:00:33:37.682
  91. 00:39:04.384                   : en:00:39:04.384
  92. 00:47:56.082                   : en:00:47:56.082
  93. 00:52:54.880                   : en:00:52:54.880
  94. 00:56:47.654                   : en:00:56:47.654
  95. 01:04:28.031                   : en:01:04:28.031
  96. 01:13:03.879                   : en:01:13:03.879
  97. 01:18:11.270                   : en:01:18:11.270
  98. 01:26:40.946                   : en:01:26:40.946
  99. 01:33:37.445                   : en:01:33:37.445
  100. 01:38:01.209                   : en:01:38:01.209

复制代码




游客,如果您要查看本帖隐藏内容请回复,您还可以免扣高清币免回复下载:https://www.85lou.com/plugin.php?id=wyfaka_url:url

回复

使用道具 举报

金鸡奖主角

高清币
579
金钱
3716
鲜花
0
在线时间
511 小时
最后登录
2019-6-24
发表于 2019-6-12 20:22:13 | 显示全部楼层

我看不错噢 谢谢楼主!中国高清论坛越来越好!
回复 支持 反对

使用道具 举报

superstar

高清币
4750
金钱
10840
鲜花
0
在线时间
742 小时
最后登录
2019-6-27
发表于 2019-6-12 20:23:25 | 显示全部楼层
楼主发贴辛苦了,谢谢楼主分享!我觉得中国高清论坛是注册对了!
回复 支持 反对

使用道具 举报

知名艺人

高清币
32
金钱
398
鲜花
0
在线时间
76 小时
最后登录
2019-6-25
发表于 2019-6-12 20:24:20 | 显示全部楼层
CryptoCryptoCryptoCrypto
回复 支持 反对

使用道具 举报

永恒神话

高清币
10626
金钱
34310
鲜花
10
在线时间
2283 小时
最后登录
2019-6-27
发表于 2019-6-12 20:26:59 | 显示全部楼层

论坛不能没有像楼主这样的人才啊!我会一直支持中国高清论坛
回复 支持 反对

使用道具 举报

金鸡奖主角

高清币
110
金钱
3242
鲜花
0
在线时间
372 小时
最后登录
2019-6-27
发表于 2019-6-12 20:28:55 | 显示全部楼层
谢谢楼主分享!我觉得中国高清论坛是注册对了!
回复 支持 反对

使用道具 举报

人气偶像

高清币
28
金钱
1508
鲜花
0
在线时间
269 小时
最后登录
2019-6-23
发表于 2019-6-12 20:32:35 | 显示全部楼层

这个帖子不回对不起自己!我想我是一天也不能离开中国高清论坛
回复 支持 反对

使用道具 举报

人气偶像

高清币
29
金钱
1501
鲜花
0
在线时间
252 小时
最后登录
2019-6-26
发表于 2019-6-12 20:32:45 | 显示全部楼层

这个帖子不回对不起自己!我想我是一天也不能离开中国高清论坛
回复 支持 反对

使用道具 举报

金鸡奖主角

高清币
1040
金钱
2115
鲜花
0
在线时间
239 小时
最后登录
2019-6-27
发表于 2019-6-12 20:34:19 | 显示全部楼层
楼主发贴辛苦了,谢谢楼主分享!我觉得中国高清论坛是注册对了!
回复 支持 反对

使用道具 举报

懒得打字嘛,点击右侧快捷回复 【右侧内容,后台自定义】
您需要登录后才可以回帖 登录 | 立即注册

本版积分规则

QQ|手机版|小黑屋|中国高清论坛 ( 黔ICP备16007815号-1 )

GMT+8, 2019-6-27 20:58 , Processed in 0.124538 second(s), 29 queries .

Powered by Discuz! X3.4

© 2001-2017 Comsenz Inc.

快速回复 返回顶部 返回列表