请选择 进入手机版 | 继续访问电脑版

中国高清论坛

 找回密码
 立即注册
搜索
查看: 2015|回复: 628

[惊悚片] 孟买酒店/失控危城(台) .2018.BDRip.1080p.seleZen 11.63 GiB

  [复制链接]

超级版主

高清币
16131
金钱
37545
鲜花
0
在线时间
11702 小时
最后登录
2019-6-27
发表于 2019-6-12 21:00:41 | 显示全部楼层 |阅读模式



◎译  名 孟买酒店/失控危城(台)
◎年  代 2018
◎国  家 澳大利亚/美国/印度
◎类  别 剧情/惊悚/历史
◎语  言 英语
◎IMDb评分 7.8/10 from 6952 users
◎IMDB链接 http://www.imdb.com/title/tt5461944
◎片  长 2 h 2 min
◎导  演 安东尼·马拉斯 Anthony Maras
◎主  演 艾米·汉莫 Armie Hammer
      纳赞宁·波妮阿蒂 Nazanin Boniadi
      戴夫·帕特尔 Dev Patel
      詹森·艾萨克 Jason Isaacs
      阿努潘·凯尔 Anupam Kher
      刘承羽 Natasha Liu Bordizzo
      安格斯·麦克拉伦 Angus McLaren
      萨钦·乔伯 Sachin Joab
      蒂尔达·格哈姆-哈维 Tilda Cobham-Hervey
      维品·沙尔马 Vipin Sharma
      阿布罗伊·辛格 Abhiroy Singh
      迪维亚·阿妮 Divya Unny
      桑迪普·博雅卡 Sandeep Bhojak
      Zenia Starr




◎简  介

  影片真实再现震惊世界的“印度9·11”孟买恐袭事件,2008年11月,著名的泰姬陵酒店意外遭到恐怖分子入侵,恐怖分子无差别行凶,让整个酒店陷入绝望之境,百余名酒店住客及员工被困,无人得知何时能等来救援,一场与死神的赛跑就此开启…

  1. General
  2. Unique ID : 280588107746232140848004485716127151823 (0xD3174DCABC2F3B56356A19431F1276CF)
  3. Complete name : D:Video111Hotel.Mumbai.2018.BDRip.1080p.seleZen.mkv
  4. Format : Matroska
  5. Format version : Version 4
  6. File size : 11.6 GiB
  7. Duration : 2 h 2 min
  8. Overall bit rate : 13.6 Mb/s
  9. Movie name : Hotel Mumbai 2018 from селезень
  10. Encoded date : UTC 2019-06-12 06:16:09
  11. Writing application : mkvmerge v33.1.0 ('Primrose') 64-bit
  12. Writing library : libebml v1.3.7 + libmatroska v1.5.0

  13. Video
  14. ID : 1
  15. Format : AVC
  16. Format/Info : Advanced Video Codec
  17. Format profile : High@L4.1
  18. Format settings : CABAC / 5 Ref Frames
  19. Format settings, CABAC : Yes
  20. Format settings, Reference : 5 frames
  21. Codec ID : V_MPEG4/ISO/AVC
  22. Duration : 2 h 2 min
  23. Bit rate : 12.3 Mb/s
  24. Width : 1 920 pixels
  25. Height : 806 pixels
  26. Display aspect ratio : 2.40:1
  27. Frame rate mode : Constant
  28. Frame rate : 23.976 (24000/1001) FPS
  29. Color space : YUV
  30. Chroma subsampling : 4:2:0
  31. Bit depth : 8 bits
  32. Scan type : Progressive
  33. Bits/(Pixel*Frame) : 0.333
  34. Stream size : 10.6 GiB (91%)
  35. Title : seleZen
  36. Writing library : x264 core 148 r2705kMod 3f5ed56
  37. Encoding settings : cabac=1 / ref=5 / deblock=1:-2:-2 / analyse=0x3:0x133 / me=umh / subme=10 / psy=1 / fade_compensate=0.00 / psy_rd=1.20:0.05 / mixed_ref=1 / me_range=32 / chroma_me=1 / trellis=2 / 8x8dct=1 / cqm=0 / deadzone=21,11 / fast_pskip=0 / chroma_qp_offset=-3 / threads=12 / lookahead_threads=2 / sliced_threads=0 / nr=0 / decimate=0 / interlaced=0 / bluray_compat=0 / constrained_intra=0 / fgo=0 / bframes=8 / b_pyramid=2 / b_adapt=2 / b_bias=0 / direct=3 / weightb=1 / open_gop=0 / weightp=2 / keyint=240 / keyint_min=23 / scenecut=40 / intra_refresh=0 / rc_lookahead=50 / rc=2pass / mbtree=0 / bitrate=12345 / ratetol=1.0 / qcomp=0.60 / qpmin=0 / qpmax=51 / qpstep=4 / cplxblur=20.0 / qblur=0.5 / vbv_maxrate=50000 / vbv_bufsize=62500 / nal_hrd=none / filler=0 / ip_ratio=1.40 / pb_ratio=1.30 / aq=3:0.80
  38. Language : English
  39. Default : Yes
  40. Forced : No

  41. Audio #1
  42. ID : 2
  43. Format : AC-3
  44. Format/Info : Audio Coding 3
  45. Commercial name : Dolby Digital
  46. Codec ID : A_AC3
  47. Duration : 2 h 2 min
  48. Bit rate mode : Constant
  49. Bit rate : 384 kb/s
  50. Channel(s) : 6 channels
  51. Channel layout : L R C LFE Ls Rs
  52. Sampling rate : 48.0 kHz
  53. Frame rate : 31.250 FPS (1536 SPF)
  54. Bit depth : 16 bits
  55. Compression mode : Lossy
  56. Stream size : 338 MiB (3%)
  57. Title : iTunes
  58. Language : Russian
  59. Service kind : Complete Main
  60. Default : Yes
  61. Forced : Yes

  62. Audio #2
  63. ID : 3
  64. Format : AC-3
  65. Format/Info : Audio Coding 3
  66. Commercial name : Dolby Digital
  67. Codec ID : A_AC3
  68. Duration : 2 h 2 min
  69. Bit rate mode : Constant
  70. Bit rate : 192 kb/s
  71. Channel(s) : 2 channels
  72. Channel layout : L R
  73. Sampling rate : 48.0 kHz
  74. Frame rate : 31.250 FPS (1536 SPF)
  75. Bit depth : 16 bits
  76. Compression mode : Lossy
  77. Stream size : 169 MiB (1%)
  78. Title : MVO [HDRezka Studio]
  79. Language : Russian
  80. Service kind : Complete Main
  81. Default : No
  82. Forced : Yes

  83. Audio #3
  84. ID : 4
  85. Format : AC-3
  86. Format/Info : Audio Coding 3
  87. Commercial name : Dolby Digital
  88. Codec ID : A_AC3
  89. Duration : 2 h 2 min
  90. Bit rate mode : Constant
  91. Bit rate : 640 kb/s
  92. Channel(s) : 6 channels
  93. Channel layout : L R C LFE Ls Rs
  94. Sampling rate : 48.0 kHz
  95. Frame rate : 31.250 FPS (1536 SPF)
  96. Bit depth : 16 bits
  97. Compression mode : Lossy
  98. Stream size : 563 MiB (5%)
  99. Title : Original
  100. Language : English
  101. Service kind : Complete Main
  102. Default : No
  103. Forced : No

  104. Text #1
  105. ID : 5
  106. Format : UTF-8
  107. Codec ID : S_TEXT/UTF8
  108. Codec ID/Info : UTF-8 Plain Text
  109. Duration : 1 h 52 min
  110. Bit rate : 3 b/s
  111. Count of elements : 39
  112. Stream size : 2.66 KiB (0%)
  113. Title : Forced
  114. Language : Russian
  115. Default : Yes
  116. Forced : Yes

  117. Text #2
  118. ID : 6
  119. Format : UTF-8
  120. Codec ID : S_TEXT/UTF8
  121. Codec ID/Info : UTF-8 Plain Text
  122. Duration : 1 h 52 min
  123. Bit rate : 33 b/s
  124. Count of elements : 915
  125. Stream size : 28.0 KiB (0%)
  126. Title : Full
  127. Language : English
  128. Default : No
  129. Forced : No

  130. Menu
  131. 00:00:00.000 : en:Chapter 1
  132. 00:06:37.938 : en:Chapter 2
  133. 00:15:50.866 : en:Chapter 3
  134. 00:24:23.378 : en:Chapter 4
  135. 00:36:02.826 : en:Chapter 5
  136. 00:48:46.965 : en:Chapter 6
  137. 01:00:38.217 : en:Chapter 7
  138. 01:15:28.356 : en:Chapter 8
  139. 01:27:47.094 : en:Chapter 9
  140. 01:37:14.494 : en:Chapter 10
  141. 01:46:32.468 : en:Chapter 11
  142. 01:55:33.259 : en:Chapter 12
复制代码



游客,如果您要查看本帖隐藏内容请回复,您还可以免扣高清币免回复下载:https://www.85lou.com/plugin.php?id=wyfaka_url:url

回复

使用道具 举报

跑龙套

高清币
0
金钱
4
鲜花
0
在线时间
0 小时
最后登录
2019-6-12
发表于 2019-6-12 21:02:38 | 显示全部楼层
感谢分享,非常不错
回复 支持 反对

使用道具 举报

天王巨星

高清币
5
金钱
2427
鲜花
0
在线时间
744 小时
最后登录
2019-6-27
发表于 2019-6-12 21:04:23 | 显示全部楼层

这东西我收了!谢谢楼主!中国高清论坛真好!
回复 支持 反对

使用道具 举报

天王巨星

高清币
5
金钱
2427
鲜花
0
在线时间
744 小时
最后登录
2019-6-27
发表于 2019-6-12 21:04:49 | 显示全部楼层

楼主,大恩不言谢了!中国高清论坛是最棒的!
回复 支持 反对

使用道具 举报

人气偶像

高清币
22
金钱
1021
鲜花
0
在线时间
180 小时
最后登录
2019-6-22
发表于 2019-6-12 21:06:31 | 显示全部楼层
听说不错,看一下

回复 支持 反对

使用道具 举报

天王巨星

高清币
5
金钱
2427
鲜花
0
在线时间
744 小时
最后登录
2019-6-27
发表于 2019-6-12 21:08:59 | 显示全部楼层

这个帖子不回对不起自己!我想我是一天也不能离开中国高清论坛
回复 支持 反对

使用道具 举报

人气偶像

高清币
56
金钱
2015
鲜花
0
在线时间
424 小时
最后登录
2019-6-26
发表于 2019-6-12 21:14:55 | 显示全部楼层
楼主发贴辛苦了,谢谢楼主分享!我觉得中国高清论坛是注册对了!
回复 支持 反对

使用道具 举报

superstar

高清币
3348
金钱
11767
鲜花
0
在线时间
3655 小时
最后登录
2019-6-17
发表于 2019-6-12 21:15:35 | 显示全部楼层

楼主,大恩不言谢了!中国高清论坛是最棒的!
回复 支持 反对

使用道具 举报

影坛巨星

高清币
1800
金钱
9883
鲜花
0
在线时间
5774 小时
最后登录
2019-6-27
发表于 2019-6-12 21:15:56 | 显示全部楼层

感谢楼主的无私分享!要想中国高清论坛好 就靠你我他
回复 支持 反对

使用道具 举报

人气偶像

高清币
49
金钱
776
鲜花
0
在线时间
64 小时
最后登录
2019-6-26
发表于 2019-6-12 21:16:44 | 显示全部楼层

我看不错噢 谢谢楼主!中国高清论坛越来越好!
回复 支持 反对

使用道具 举报

懒得打字嘛,点击右侧快捷回复 【右侧内容,后台自定义】
您需要登录后才可以回帖 登录 | 立即注册

本版积分规则

QQ|手机版|小黑屋|中国高清论坛 ( 黔ICP备16007815号-1 )

GMT+8, 2019-6-27 20:34 , Processed in 0.053597 second(s), 29 queries .

Powered by Discuz! X3.4

© 2001-2017 Comsenz Inc.

快速回复 返回顶部 返回列表