请选择 进入手机版 | 继续访问电脑版

中国高清论坛

 找回密码
 立即注册
搜索
查看: 2677|回复: 682

[爱情片] 比悲伤更悲伤的故事 More.Than.Blue.2018.CHINESE.1080p.BluRay.x264.DD5.1-PbK

  [复制链接]

超级版主

高清币
16103
金钱
37483
鲜花
0
在线时间
11683 小时
最后登录
2019-6-24
发表于 2019-6-12 21:21:04 | 显示全部楼层 |阅读模式



◎译  名 比悲伤更悲伤的故事
◎片  名 More Than Blue
◎年  代 2018
◎国  家 中国台湾
◎类  别 爱情
◎语  言 普通话
◎IMDB评分 5.6/10 (570 votes)
◎IMDB链接 https://www.imdb.com/title/tt9081562
◎片  长 1 h 45 min
◎导  演 林孝谦 Hsiao Chien Lin
◎主  演 陈意涵 Ivy Chen
       刘以豪 Jasper Liu
       张书豪 Bryan Shu-Hao Chang
       陈庭妮 Annie Chen
       吴映洁 Gemma Wu
       禾浩辰 Bruce Hung
       游大庆 Da-Ching
       石知田 Chih Tian Shih
       黄丽玲 A-Lin
       姚爱宁 Pi Pi Yao
       张允曦 Stephanie Chang
       海 芬 Heaven Hai


◎简  介


  唱片制作人张哲凯(刘以豪 饰)和王牌作词人宋媛媛(陈意涵 饰)相依为命,两人自幼身世坎坷只有彼此为伴,他们是亲人、是朋友,也彷佛是命中注定的另一半.父亲罹患遗传重症而被母亲抛弃的哲凯,深怕自己随时会发病不久人世,始终没有跨出友谊的界线对媛媛展露爱意.眼见哲凯的病情加重,他暗自决定用剩余的生命完成他们之间的终曲,再为媛媛找个可以托付一生的好男人.这时,事业有成温柔体贴的医生(张书豪 饰)适时的出现让他成为照顾媛媛的最佳人选,二人按部就班发展着关系.一切看似都在哲凯的计划下进行.然而,故事远比这里所写更要悲伤...
  1. Video
  2. ID : 1
  3. Format : AVC
  4. Format/Info : Advanced Video Codec
  5. Format profile : High@L4.1
  6. Format settings : CABAC / 5 Ref Frames
  7. Format settings, CABAC : Yes
  8. Format settings, ReFrames : 5 frames
  9. Codec ID : V_MPEG4/ISO/AVC
  10. Duration : 1 h 45 min
  11. Bit rate : 8 500 kb/s
  12. Width : 1 920 pixels
  13. Height : 804 pixels
  14. Display aspect ratio : 2.40:1
  15. Frame rate mode : Constant
  16. Frame rate : 24.000 FPS
  17. Color space : YUV
  18. Chroma subsampling : 4:2:0
  19. Bit depth : 8 bits
  20. Scan type : Progressive
  21. Bits/(Pixel*Frame) : 0.229
  22. Stream size : 6.29 GiB (93%)
  23. Writing library : x264 core 146 r2538 121396c
  24. Encoding settings : cabac=1 / ref=5 / deblock=1:-3:-3 / analyse=0x3:0x133 / me=umh / subme=10 / psy=1 / psy_rd=1.00:0.00 / mixed_ref=1 / me_range=32 / chroma_me=1 / trellis=2 / 8x8dct=1 / cqm=0 / deadzone=21,11 / fast_pskip=0 / chroma_qp_offset=-3 / threads=12 / lookahead_threads=2 / sliced_threads=0 / nr=0 / decimate=0 / interlaced=0 / bluray_compat=0 / constrained_intra=0 / bframes=8 / b_pyramid=2 / b_adapt=2 / b_bias=0 / direct=3 / weightb=1 / open_gop=0 / weightp=2 / keyint=240 / keyint_min=24 / scenecut=40 / intra_refresh=0 / rc_lookahead=60 / rc=2pass / mbtree=0 / bitrate=8500 / ratetol=1.0 / qcomp=0.60 / qpmin=0 / qpmax=69 / qpstep=4 / cplxblur=20.0 / qblur=0.5 / vbv_maxrate=62500 / vbv_bufsize=78125 / nal_hrd=none / filler=0 / ip_ratio=1.30 / pb_ratio=1.20 / aq=1:0.80
  25. Language : Chinese
  26. Default : Yes
  27. Forced : No

  28. Audio
  29. ID : 2
  30. Format : AC-3
  31. Format/Info : Audio Coding 3
  32. Commercial name : Dolby Digital
  33. Codec ID : A_AC3
  34. Duration : 1 h 45 min
  35. Bit rate mode : Constant
  36. Bit rate : 640 kb/s
  37. Channel(s) : 6 channels
  38. Channel layout : L R C LFE Ls Rs
  39. Sampling rate : 48.0 kHz
  40. Frame rate : 31.250 FPS (1536 SPF)
  41. Bit depth : 16 bits
  42. Compression mode : Lossy
  43. Stream size : 485 MiB (7%)
  44. Language : Chinese
  45. Service kind : Complete Main
  46. Default : Yes
  47. Forced : No

  48. Text
  49. ID : 3
  50. Format : UTF-8
  51. Codec ID : S_TEXT/UTF8
  52. Codec ID/Info : UTF-8 Plain Text
  53. Duration : 1 h 41 min
  54. Bit rate : 52 b/s
  55. Count of elements : 1814
  56. Stream size : 38.9 KiB (0%)
  57. Language : English
  58. Default : Yes
  59. Forced : No

  60. Menu
  61. 00:00:00.000 : zh:第 01 章
  62. 00:03:40.042 : zh:第 02 章
  63. 00:09:53.000 : zh:第 03 章
  64. 00:16:43.625 : zh:第 04 章
  65. 00:20:45.042 : zh:第 05 章
  66. 00:25:47.125 : zh:第 06 章
  67. 00:31:12.333 : zh:第 07 章
  68. 00:34:23.917 : zh:第 08 章
  69. 00:42:14.917 : zh:第 09 章
  70. 00:46:28.958 : zh:第 10 章
  71. 00:53:51.958 : zh:第 11 章
  72. 00:58:39.083 : zh:第 12 章
  73. 01:03:28.375 : zh:第 13 章
  74. 01:07:50.208 : zh:第 14 章
  75. 01:12:10.875 : zh:第 15 章
  76. 01:18:56.000 : zh:第 16 章
  77. 01:24:01.708 : zh:第 17 章
  78. 01:28:00.208 : zh:第 18 章
  79. 01:31:55.250 : zh:第 19 章
  80. 01:35:51.917 : zh:第 20 章
复制代码







游客,如果您要查看本帖隐藏内容请回复,您还可以免扣高清币免回复下载:https://www.85lou.com/plugin.php?id=wyfaka_url:url

回复

使用道具 举报

天王巨星

高清币
32
金钱
3473
鲜花
0
在线时间
572 小时
最后登录
2019-6-24
发表于 2019-6-12 21:23:27 | 显示全部楼层
楼主发贴辛苦了,谢谢楼主分享!我觉得中国高清论坛是注册对了!
回复 支持 反对

使用道具 举报

superstar

高清币
7
金钱
12030
鲜花
0
在线时间
4031 小时
最后登录
2019-6-23
发表于 2019-6-12 21:29:08 | 显示全部楼层

我看不错噢 谢谢楼主!中国高清论坛越来越好!
回复 支持 反对

使用道具 举报

天王巨星

高清币
11
金钱
2468
鲜花
0
在线时间
655 小时
最后登录
2019-6-23
发表于 2019-6-12 21:29:20 | 显示全部楼层

楼主太厉害了!楼主,电影应该很好看我觉得中国高清论坛真是个好地方!
回复 支持 反对

使用道具 举报

金鸡奖主角

高清币
71
金钱
5590
鲜花
0
在线时间
1452 小时
最后登录
2019-6-24
发表于 2019-6-12 21:30:08 | 显示全部楼层
看起来不错的电影啊 多谢分享了
回复 支持 反对

使用道具 举报

好莱坞明星

高清币
1377
金钱
6275
鲜花
0
在线时间
695 小时
最后登录
2019-6-24
发表于 2019-6-12 21:30:39 | 显示全部楼层

感谢楼主的无私分享!要想中国高清论坛好 就靠你我他
回复 支持 反对

使用道具 举报

人气偶像

高清币
1
金钱
1199
鲜花
0
在线时间
282 小时
最后登录
2019-6-24
发表于 2019-6-12 21:33:13 | 显示全部楼层
楼主发贴辛苦了,谢谢楼主分享!我觉得中国高清论坛是注册对了!
回复 支持 反对

使用道具 举报

知名艺人

高清币
48
金钱
618
鲜花
0
在线时间
154 小时
最后登录
2019-6-24
发表于 2019-6-12 21:33:18 | 显示全部楼层
这个帖子不回对不起自己!我想我是一天也不能离开中国高清论坛。
回复 支持 反对

使用道具 举报

人气偶像

高清币
1
金钱
1199
鲜花
0
在线时间
282 小时
最后登录
2019-6-24
发表于 2019-6-12 21:33:35 | 显示全部楼层

楼主太厉害了!楼主,电影应该很好看我觉得中国高清论坛真是个好地方!
回复 支持 反对

使用道具 举报

人气偶像

高清币
152
金钱
1846
鲜花
0
在线时间
173 小时
最后登录
2019-6-12
发表于 2019-6-12 21:36:46 | 显示全部楼层

这个帖子不回对不起自己!我想我是一天也不能离开中国高清论坛
回复 支持 反对

使用道具 举报

懒得打字嘛,点击右侧快捷回复 【右侧内容,后台自定义】
您需要登录后才可以回帖 登录 | 立即注册

本版积分规则

QQ|手机版|小黑屋|中国高清论坛 ( 黔ICP备16007815号-1 )

GMT+8, 2019-6-25 00:32 , Processed in 0.050948 second(s), 29 queries .

Powered by Discuz! X3.4

© 2001-2017 Comsenz Inc.

快速回复 返回顶部 返回列表