请选择 进入手机版 | 继续访问电脑版

中国高清论坛

 找回密码
 立即注册
搜索
查看: 4072|回复: 732

[动作片] 机动部队.同袍 Tactical.Unit.Comrades.In.Arms.2009.1080p.BluRay.x264-aBD

  [复制链接]

超级版主

高清币
17046
金钱
39535
鲜花
0
在线时间
12125 小时
最后登录
2019-9-16
发表于 2019-6-12 22:39:21 | 显示全部楼层 |阅读模式


◎译  名 机动部队.同袍
◎片  名 P T U 2
◎年  代 2009
◎国  家 中国/中国香港
◎类  别 动作/犯罪
◎语  言 普通话
◎IMDB评分 6.6/10 (38 votes)
◎IMDB链接 http://www.imdb.com/title/tt1344008
◎片  长 91 Min
◎导  演 罗永昌 Wing-cheong Law
◎主  演 任达华 Simon Yam .... Sam
      邵美琪 Maggie Siu .... May
      林雪 Suet Lam .... Fat Lo
      彭敬慈 King-Chi Pang ....
      黄智贤 Chi-yin Wong .... Officer Ho
      施祖男 Vincent Sze ....
      张荣祥 Yung-cheng Chang ....
      林敬刚 King-Kong Lam ....
      刘国诚 Kwok Shing Lau ....
      李国麟 Kwok-Lun Lee ....
      连晋 Teddy Lin ....
      Luk Man Wai ....





◎简  介 


  森(任达华 饰)和May(邵美琪 饰)各自带领的机动小组成员间争强好胜,May的小组得到何长官赏识,娇纵傲慢,森一队心有不服,却无可奈何。
  机动小组即将解散,但在执勤的最后一天发生一起抢劫案,劫匪逃入荒山。两支小组并为一队上山展开地毯式搜查。期间各种离奇状况不断,加上彼此矛盾重重,致使森和May分头行动,却遭遇诸多险阻。另一方面,为队员送饭的肥棠(林雪 饰)汽车抛锚,结果遭遇劫匪。官兵与强盗在山中展开了一场怪异惊险的捉迷藏游戏,而PTU同事间的友情也受到了考验……
  1. Video
  2. ID : 1
  3. Format : AVC
  4. Format/Info : Advanced Video Codec
  5. Format profile : High@L4.1
  6. Format settings : CABAC / 4 Ref Frames
  7. Format settings, CABAC : Yes
  8. Format settings, ReFrames : 4 frames
  9. Codec ID : V_MPEG4/ISO/AVC
  10. Duration : 1 h 30 min
  11. Bit rate : 8 886 kb/s
  12. Width : 1 920 pixels
  13. Height : 1 080 pixels
  14. Display aspect ratio : 16:9
  15. Frame rate mode : Constant
  16. Frame rate : 24.000 FPS
  17. Color space : YUV
  18. Chroma subsampling : 4:2:0
  19. Bit depth : 8 bits
  20. Scan type : Progressive
  21. Bits/(Pixel*Frame) : 0.179
  22. Stream size : 5.47 GiB (83%)
  23. Writing library : x264 core 122 r2184 5c85e0a
  24. Encoding settings : cabac=1 / ref=4 / deblock=1:-1:-1 / analyse=0x3:0x113 / me=umh / subme=7 / psy=1 / psy_rd=1.00:0.00 / mixed_ref=1 / me_range=16 / chroma_me=1 / trellis=1 / 8x8dct=1 / cqm=0 / deadzone=21,11 / fast_pskip=1 / chroma_qp_offset=-2 / threads=6 / sliced_threads=0 / nr=0 / decimate=1 / interlaced=0 / bluray_compat=0 / constrained_intra=0 / bframes=3 / b_pyramid=2 / b_adapt=2 / b_bias=0 / direct=3 / weightb=1 / open_gop=0 / weightp=2 / keyint=250 / keyint_min=24 / scenecut=40 / intra_refresh=0 / rc_lookahead=40 / rc=2pass / mbtree=1 / bitrate=8886 / ratetol=1.0 / qcomp=0.60 / qpmin=0 / qpmax=69 / qpstep=4 / cplxblur=20.0 / qblur=0.5 / vbv_maxrate=50000 / vbv_bufsize=50000 / nal_hrd=none / ip_ratio=1.40 / aq=1:1.00
  25. Language : Chinese
  26. Default : Yes
  27. Forced : No

  28. Audio
  29. ID : 2
  30. Format : DTS
  31. Format/Info : Digital Theater Systems
  32. Codec ID : A_DTS
  33. Duration : 1 h 30 min
  34. Bit rate mode : Constant
  35. Bit rate : 1 509 kb/s
  36. Channel(s) : 6 channels
  37. Channel layout : C L R Ls Rs LFE
  38. Sampling rate : 48.0 kHz
  39. Frame rate : 93.750 FPS (512 SPF)
  40. Bit depth : 16 bits
  41. Compression mode : Lossy
  42. Stream size : 974 MiB (15%)
  43. Language : Chinese
  44. Default : Yes
  45. Forced : No

  46. Text
  47. ID : 3
  48. Format : UTF-8
  49. Codec ID : S_TEXT/UTF8
  50. Codec ID/Info : UTF-8 Plain Text
  51. Language : English
  52. Default : Yes
  53. Forced : No
复制代码









游客,如果您要查看本帖隐藏内容请回复,您还可以免扣高清币免回复下载:https://www.85lou.com/plugin.php?id=wyfaka_url:url


回复

使用道具 举报

superstar

高清币
5531
金钱
7327
鲜花
0
在线时间
390 小时
最后登录
2019-9-16
发表于 2019-6-12 22:44:40 | 显示全部楼层
楼主发贴辛苦了,谢谢楼主分享!我觉得中国高清论坛是注册对了!
回复 支持 反对

使用道具 举报

天王巨星

高清币
811
金钱
924
鲜花
0
在线时间
45 小时
最后登录
2019-7-21
发表于 2019-6-12 22:50:40 | 显示全部楼层
我有家的感觉~~你知道吗
回复 支持 反对

使用道具 举报

金鸡奖主角

高清币
614
金钱
4527
鲜花
0
在线时间
558 小时
最后登录
2019-9-8

天使勋章

发表于 2019-6-12 22:53:48 | 显示全部楼层
楼主发贴辛苦了,谢谢楼主分享!我觉得中国高清论坛是注册对了!
回复 支持 反对

使用道具 举报

永恒神话

高清币
9835
金钱
17034
鲜花
0
在线时间
1819 小时
最后登录
2019-9-16
发表于 2019-6-12 22:54:32 | 显示全部楼层
感谢楼主分享
回复 支持 反对

使用道具 举报

superstar

高清币
5204
金钱
6962
鲜花
0
在线时间
1487 小时
最后登录
2019-9-16
发表于 2019-6-12 22:56:50 | 显示全部楼层

这个帖子不回对不起自己!我想我是一天也不能离开中国高清论坛
回复 支持 反对

使用道具 举报

金鸡奖主角

高清币
1939
金钱
2541
鲜花
0
在线时间
115 小时
最后登录
2019-8-10
发表于 2019-6-12 22:57:01 | 显示全部楼层

楼主发贴辛苦了,谢谢楼主分享!我觉得中国高清论坛是注册对了!
回复 支持 反对

使用道具 举报

金鸡奖主角

高清币
131
金钱
4486
鲜花
0
在线时间
1675 小时
最后登录
2019-9-16
发表于 2019-6-12 23:00:25 | 显示全部楼层
楼主发贴辛苦了,谢谢楼主分享!我觉得中国高清论坛是注册对了!
回复 支持 反对

使用道具 举报

懒得打字嘛,点击右侧快捷回复 【右侧内容,后台自定义】
您需要登录后才可以回帖 登录 | 立即注册

本版积分规则

QQ|手机版|小黑屋|中国高清论坛 ( 黔ICP备16007815号-1 )

GMT+8, 2019-9-16 20:09 , Processed in 0.068458 second(s), 27 queries .

Powered by Discuz! X3.4

© 2001-2017 Comsenz Inc.

快速回复 返回顶部 返回列表