请选择 进入手机版 | 继续访问电脑版

中国高清论坛

 找回密码
 立即注册
搜索
查看: 1672|回复: 291

[传记片] 教授与疯子/牛津解密(台) The.Professor.and.the.Madman.2019.BDRip.1080p.seleZen

  [复制链接]

超级版主

高清币
16131
金钱
37545
鲜花
0
在线时间
11702 小时
最后登录
2019-6-27
发表于 2019-6-13 06:55:23 | 显示全部楼层 |阅读模式


◎译  名 教授与疯子/牛津解密(台)
◎片  名 The Professor and the Madman
◎年  代 2019
◎国  家 爱尔兰
◎类  别 传记/剧情
◎语  言 英语
◎IMDb评分 7.6/10 from 1545 users
◎IMDB链接 https://www.imdb.com/title/tt5932728/
◎片  长 2 h 4 min
◎导  演 法尔哈德·撒夫尼亚 Farhad Safinia
◎主  演 梅尔·吉布森 Mel Gibson
       西恩·潘 Sean Penn
       娜塔莉·多默尔 Natalie Dormer
       詹妮弗·艾莉 Jennifer Ehle
       斯蒂芬·迪兰 Stephen Dillane

◎简  介 



  影片故事根据真实事件改编,詹姆斯·默里博士(梅尔·吉布森饰演)领导下的编委会要进行新版本的《牛津英语字典》的编辑,以当时的人力科技水平,完成字典的编撰要一个世纪才能完成,詹姆斯·默里博士开创性的采用了全民参与的方式,让全英使用英语的人一起为字典收集词条定义,并通过寄信的方式发送给编撰组。

  在收集定义过程中,他们发现了一个叫W.C.迈纳(西恩·潘饰演)的医生独自贡献了一万多条引语,这是一个专业语言学者都很难完成的工作量。当编委会决定向他致敬时,一个惊人的事实曝光了:原来迈纳医生,是美国内战时期部队的一个军医,因为患有精神分裂症而犯杀人罪,被禁闭在精神病院,是一个被认为是疯子的人。

  一位教授、一个疯子,人类历史上最早的英语大词典就这样在两个迥然不同的人手中诞生。
  1. General
  2. Unique ID : 221777966472668434760445254076982540406 (0xA6D8E1F63C3AB5D4899F6B790D76B876)
  3. Complete name : D:Video111The.Professor.and.the.Madman.2019.BDRip.1080p.seleZen.mkv
  4. Format : Matroska
  5. Format version : Version 4
  6. File size : 9.77 GiB
  7. Duration : 2 h 4 min
  8. Overall bit rate : 11.2 Mb/s
  9. Movie name : The Professor and the Madman 2019 from селезень
  10. Encoded date : UTC 2019-06-12 14:27:17
  11. Writing application : mkvmerge v33.1.0 ('Primrose') 64-bit
  12. Writing library : libebml v1.3.7 + libmatroska v1.5.0

  13. Video
  14. ID : 1
  15. Format : AVC
  16. Format/Info : Advanced Video Codec
  17. Format profile : High@L4.1
  18. Format settings : CABAC / 5 Ref Frames
  19. Format settings, CABAC : Yes
  20. Format settings, Reference : 5 frames
  21. Codec ID : V_MPEG4/ISO/AVC
  22. Duration : 2 h 4 min
  23. Bit rate : 10 000 kb/s
  24. Width : 1 920 pixels
  25. Height : 804 pixels
  26. Display aspect ratio : 2.40:1
  27. Frame rate mode : Constant
  28. Frame rate : 23.976 (24000/1001) FPS
  29. Color space : YUV
  30. Chroma subsampling : 4:2:0
  31. Bit depth : 8 bits
  32. Scan type : Progressive
  33. Bits/(Pixel*Frame) : 0.270
  34. Stream size : 8.71 GiB (89%)
  35. Title : seleZen
  36. Writing library : x264 core 148 r2705kMod 3f5ed56
  37. Encoding settings : cabac=1 / ref=5 / deblock=1:-2:-2 / analyse=0x3:0x133 / me=umh / subme=10 / psy=1 / fade_compensate=0.00 / psy_rd=1.20:0.05 / mixed_ref=1 / me_range=32 / chroma_me=1 / trellis=2 / 8x8dct=1 / cqm=0 / deadzone=21,11 / fast_pskip=0 / chroma_qp_offset=-3 / threads=12 / lookahead_threads=2 / sliced_threads=0 / nr=0 / decimate=0 / interlaced=0 / bluray_compat=0 / constrained_intra=0 / fgo=0 / bframes=8 / b_pyramid=2 / b_adapt=2 / b_bias=0 / direct=3 / weightb=1 / open_gop=0 / weightp=2 / keyint=240 / keyint_min=23 / scenecut=40 / intra_refresh=0 / rc_lookahead=50 / rc=2pass / mbtree=0 / bitrate=10000 / ratetol=1.0 / qcomp=0.60 / qpmin=0 / qpmax=51 / qpstep=4 / cplxblur=20.0 / qblur=0.5 / vbv_maxrate=50000 / vbv_bufsize=62500 / nal_hrd=none / filler=0 / ip_ratio=1.40 / pb_ratio=1.30 / aq=3:0.80
  38. Language : English
  39. Default : Yes
  40. Forced : No

  41. Audio #1
  42. ID : 2
  43. Format : AC-3
  44. Format/Info : Audio Coding 3
  45. Commercial name : Dolby Digital
  46. Codec ID : A_AC3
  47. Duration : 2 h 4 min
  48. Bit rate mode : Constant
  49. Bit rate : 384 kb/s
  50. Channel(s) : 6 channels
  51. Channel layout : L R C LFE Ls Rs
  52. Sampling rate : 48.0 kHz
  53. Frame rate : 31.250 FPS (1536 SPF)
  54. Bit depth : 16 bits
  55. Compression mode : Lossy
  56. Stream size : 342 MiB (3%)
  57. Title : Dub [iTunes]
  58. Language : Russian
  59. Service kind : Complete Main
  60. Default : Yes
  61. Forced : Yes

  62. Audio #2
  63. ID : 3
  64. Format : AC-3
  65. Format/Info : Audio Coding 3
  66. Commercial name : Dolby Digital
  67. Codec ID : A_AC3
  68. Duration : 2 h 4 min
  69. Bit rate mode : Constant
  70. Bit rate : 192 kb/s
  71. Channel(s) : 2 channels
  72. Channel layout : L R
  73. Sampling rate : 48.0 kHz
  74. Frame rate : 31.250 FPS (1536 SPF)
  75. Bit depth : 16 bits
  76. Compression mode : Lossy
  77. Stream size : 171 MiB (2%)
  78. Title : MVO [HDRezka Studio]
  79. Language : Russian
  80. Service kind : Complete Main
  81. Default : No
  82. Forced : No

  83. Audio #3
  84. ID : 4
  85. Format : AC-3
  86. Format/Info : Audio Coding 3
  87. Commercial name : Dolby Digital
  88. Codec ID : A_AC3
  89. Duration : 2 h 4 min
  90. Bit rate mode : Constant
  91. Bit rate : 640 kb/s
  92. Channel(s) : 6 channels
  93. Channel layout : L R C LFE Ls Rs
  94. Sampling rate : 48.0 kHz
  95. Frame rate : 31.250 FPS (1536 SPF)
  96. Bit depth : 16 bits
  97. Compression mode : Lossy
  98. Stream size : 571 MiB (6%)
  99. Title : Original
  100. Language : English
  101. Service kind : Complete Main
  102. Default : No
  103. Forced : No

  104. Text #1
  105. ID : 5
  106. Format : UTF-8
  107. Codec ID : S_TEXT/UTF8
  108. Codec ID/Info : UTF-8 Plain Text
  109. Duration : 1 h 58 min
  110. Bit rate : 108 b/s
  111. Count of elements : 1537
  112. Stream size : 94.5 KiB (0%)
  113. Title : Full
  114. Language : Russian
  115. Default : No
  116. Forced : No

  117. Text #2
  118. ID : 6
  119. Format : UTF-8
  120. Codec ID : S_TEXT/UTF8
  121. Codec ID/Info : UTF-8 Plain Text
  122. Duration : 1 h 56 min
  123. Bit rate : 65 b/s
  124. Count of elements : 1581
  125. Stream size : 55.9 KiB (0%)
  126. Title : Full
  127. Language : English
  128. Default : No
  129. Forced : No

  130. Text #3
  131. ID : 7
  132. Format : UTF-8
  133. Codec ID : S_TEXT/UTF8
  134. Codec ID/Info : UTF-8 Plain Text
  135. Duration : 1 h 57 min
  136. Bit rate : 68 b/s
  137. Count of elements : 1666
  138. Stream size : 58.4 KiB (0%)
  139. Title : SDH
  140. Language : English
  141. Default : No
  142. Forced : No

  143. Menu
  144. 00:00:00.000 : en:Chapter 1
  145. 00:15:11.327 : en:Chapter 2
  146. 00:42:26.335 : en:Chapter 3
  147. 01:05:14.202 : en:Chapter 4
  148. 01:26:20.550 : en:Chapter 5
  149. 01:45:36.247 : en:Chapter 6
复制代码





游客,如果您要查看本帖隐藏内容请回复,您还可以免扣高清币免回复下载:https://www.85lou.com/plugin.php?id=wyfaka_url:url

回复

使用道具 举报

超级明星

高清币
95
金钱
9177
鲜花
0
在线时间
1022 小时
最后登录
2019-6-27
发表于 2019-6-13 06:58:03 | 显示全部楼层

这个帖子不回对不起自己!我想我是一天也不能离开中国高清论坛
回复 支持 反对

使用道具 举报

天王巨星

高清币
398
金钱
2410
鲜花
0
在线时间
390 小时
最后登录
2019-6-27
发表于 2019-6-13 07:00:36 | 显示全部楼层

这东西我收了!谢谢楼主!中国高清论坛真好!
回复 支持 反对

使用道具 举报

superstar

高清币
383
金钱
18046
鲜花
0
在线时间
2460 小时
最后登录
2019-6-27
发表于 2019-6-13 07:12:05 | 显示全部楼层

这东西我收了!谢谢楼主!中国高清论坛真好!
回复 支持 反对

使用道具 举报

人气偶像

高清币
24
金钱
1916
鲜花
0
在线时间
463 小时
最后登录
2019-6-25
发表于 2019-6-13 07:17:10 | 显示全部楼层
不错的片子,值得下来收藏 ! 感谢楼主分享!
回复 支持 反对

使用道具 举报

超级明星

高清币
1665
金钱
6832
鲜花
0
在线时间
2168 小时
最后登录
2019-6-27
发表于 2019-6-13 07:18:11 | 显示全部楼层
楼主发贴辛苦了,谢谢楼主分享!我觉得中国高清论坛是注册对了!
回复 支持 反对

使用道具 举报

superstar

高清币
3871
金钱
11318
鲜花
0
在线时间
1119 小时
最后登录
2019-6-27
发表于 2019-6-13 07:18:25 | 显示全部楼层
楼主发贴辛苦了,谢谢楼主分享!我觉得中国高清论坛是注册对了!
回复 支持 反对

使用道具 举报

永恒神话

高清币
17521
金钱
30521
鲜花
0
在线时间
2299 小时
最后登录
2019-6-27
发表于 2019-6-13 07:26:44 | 显示全部楼层
谢谢发片,辛苦了
回复 支持 反对

使用道具 举报

superstar

高清币
6182
金钱
9812
鲜花
0
在线时间
714 小时
最后登录
2019-6-27
发表于 2019-6-13 07:35:41 | 显示全部楼层

我看不错噢 谢谢楼主!中国高清论坛越来越好!
回复 支持 反对

使用道具 举报

知名艺人

高清币
34
金钱
264
鲜花
0
在线时间
17 小时
最后登录
2019-6-25
发表于 2019-6-13 07:36:31 | 显示全部楼层

楼主太厉害了!楼主,电影应该很好看我觉得中国高清论坛真是个好地方!
回复 支持 反对

使用道具 举报

懒得打字嘛,点击右侧快捷回复 【右侧内容,后台自定义】
您需要登录后才可以回帖 登录 | 立即注册

本版积分规则

QQ|手机版|小黑屋|中国高清论坛 ( 黔ICP备16007815号-1 )

GMT+8, 2019-6-27 20:35 , Processed in 0.058402 second(s), 29 queries .

Powered by Discuz! X3.4

© 2001-2017 Comsenz Inc.

快速回复 返回顶部 返回列表