请选择 进入手机版 | 继续访问电脑版

中国高清论坛

 找回密码
 立即注册
搜索
查看: 461|回复: 106

[REMUX] 野马.The.Mustang.2019.1080p.BluRay.REMUX.AVC.DTS-HD.MA.5.1-FGT

  [复制链接]

高清发布组

高清币
255
金钱
861
鲜花
0
在线时间
149 小时
最后登录
2019-6-23
发表于 2019-6-14 15:40:29 | 显示全部楼层 |阅读模式


◎译  名 野马
◎片  名 The Mustang
◎年  代 2019
◎产  地 法国 / 美国
◎类  别 剧情
◎语  言 英语
◎上映日期 2019-03-15(美国)
◎IMDb评分 7.3/10 from 1131 users
◎IMDb链接 http://www.imdb.com/title/tt5952594
◎豆瓣评分 7.6/10 from 144 users
◎豆瓣链接 https://movie.douban.com/subject/27162627/
◎片  长 96分钟(圣丹斯电影节)
◎导  演 劳瑞·德·克莱蒙特-托奈尔 Laure de Clermont-Tonnerre
◎编  剧 劳瑞·德·克莱蒙特-托奈尔 Laure de Clermont-Tonnerre / Brock Norman Brock / 莫娜·法斯特欧德 Mona Fastvold
◎主  演 马提亚斯·修奈尔 Matthias Schoenaerts
      康妮·布里登 Connie Britton
      布鲁斯·邓恩 Bruce Dern
      乔什·斯图沃特 Josh Stewart
      吉第安·艾朵 Gideon Adlon
      杰森·米切尔 Jason Mitchell
      凯莉·理查德森 Kelly Richardson
      Santina Muha
      Jasmeet Baduwalia
      Heath Hensley


◎标  签 美国 | 2019 | 剧情 | 法国 | 真实事件 | 野马 | 马提亚斯·修奈尔 | 美国电影

◎简  介

  法国导演Laure de Clermont-Tonnerre(《纯真曲》《追忆似水年华》)执导并同Mona Fastvold(《战前童年》《梦游者》)和Brock Norman Brock(《国境卫士》《布朗森》)编写剧本,已于内华达开拍。修奈尔饰演一名暴力罪犯Roman Coleman,得到了参与一项康复治疗程序的机会,其中包括训练野蛮的野马。斯图沃特饰演Coleman的狱友,萨兰登饰演监狱的治疗专家,艾朵饰演Coleman的女儿。

Video
ID : 1
Format : AVC
Format/Info : Advanced Video Codec
Format profile : High@L4.1
Format settings : CABAC / 4 Ref Frames
Format settings, CABAC : Yes
Format settings, ReFrames : 4 frames
Format settings, GOP : M=3, N=12
Codec ID : V_MPEG4/ISO/AVC
Duration : 1 h 36 min
Bit rate mode : Variable
Bit rate : 36.2 Mb/s
Maximum bit rate : 39.9 Mb/s
Width : 1 920 pixels
Height : 1 080 pixels
Display aspect ratio : 16:9
Frame rate mode : Constant
Frame rate : 23.976 (24000/1001) FPS
Color space : YUV
Chroma subsampling : 4:2:0
Bit depth : 8 bits
Scan type : Progressive
Bits/(Pixel*Frame) : 0.729
Stream size : 24.3 GiB (89%)
Title : The.Mustang.2019.1080p.BluRay.REMUX.AVC.DTS-HD.MA.5.1-FGT
Language : English
Default : No
Forced : No

Audio #1
ID : 2
Format : DTS XLL
Format/Info : Digital Theater Systems
Commercial name : DTS-HD Master Audio
Codec ID : A_DTS
Duration : 1 h 36 min
Bit rate mode : Variable
Bit rate : 3 585 kb/s
Channel(s) : 6 channels
Channel layout : C L R Ls Rs LFE
Sampling rate : 48.0 kHz
Frame rate : 93.750 FPS (512 SPF)
Bit depth : 24 bits
Compression mode : Lossless
Stream size : 2.41 GiB (9%)
Title : The.Mustang.2019.1080p.BluRay.REMUX.AVC.DTS-HD.MA.5.1-FGT
Language : English
Default : Yes
Forced : No

Audio #2
ID : 3
Format : DTS
Format/Info : Digital Theater Systems
Codec ID : A_DTS
Duration : 1 h 36 min
Bit rate mode : Constant
Bit rate : 768 kb/s
Channel(s) : 6 channels
Channel layout : C L R Ls Rs LFE
Sampling rate : 48.0 kHz
Frame rate : 93.750 FPS (512 SPF)
Bit depth : 24 bits
Compression mode : Lossy
Stream size : 529 MiB (2%)
Title : The.Mustang.2019.1080p.BluRay.REMUX.AVC.DTS-HD.MA.5.1-FGT
Language : Spanish
Default : No
Forced : No

Audio #3
ID : 4
Format : AC-3
Format/Info : Audio Coding 3
Commercial name : Dolby Digital
Codec ID : A_AC3
Duration : 1 h 36 min
Bit rate mode : Constant
Bit rate : 192 kb/s
Channel(s) : 2 channels
Channel layout : L R
Sampling rate : 48.0 kHz
Frame rate : 31.250 FPS (1536 SPF)
Bit depth : 16 bits
Compression mode : Lossy
Stream size : 132 MiB (0%)
Title : The.Mustang.2019.1080p.BluRay.REMUX.AVC.DTS-HD.MA.5.1-FGT
Language : English
Service kind : Complete Main
Default : No
Forced : No

Text #1
ID : 5
Format : UTF-8
Codec ID : S_TEXT/UTF8
Codec ID/Info : UTF-8 Plain Text
Duration : 1 h 24 min
Bit rate : 40 b/s
Count of elements : 811
Stream size : 25.1 KiB (0%)
Title : English-SRT
Language : English
Default : Yes
Forced : No

Text #2
ID : 6
Format : PGS
Muxing mode : zlib
Codec ID : S_HDMV/PGS
Codec ID/Info : Picture based subtitle format used on BDs/HD-DVDs
Duration : 1 h 29 min
Bit rate : 31.9 kb/s
Count of elements : 2014
Stream size : 20.4 MiB (0%)
Title : English-PGS
Language : English
Default : No
Forced : No

Text #3
ID : 7
Format : PGS
Muxing mode : zlib
Codec ID : S_HDMV/PGS
Codec ID/Info : Picture based subtitle format used on BDs/HD-DVDs
Duration : 1 h 35 min
Bit rate : 24.9 kb/s
Count of elements : 1944
Stream size : 17.1 MiB (0%)
Title : Spanish-PGS
Language : Spanish
Default : No
Forced : No

Text #4
ID : 8
Format : PGS
Muxing mode : zlib
Codec ID : S_HDMV/PGS
Codec ID/Info : Picture based subtitle format used on BDs/HD-DVDs
Duration : 1 h 35 min
Bit rate : 20.5 kb/s
Count of elements : 1582
Stream size : 14.1 MiB (0%)
Title : French-PGS
Language : French
Default : No
Forced : No

Menu
00:00:00.000 : en:Chapter 01
00:05:16.399 : en:Chapter 02
00:09:23.062 : en:Chapter 03
00:14:55.227 : en:Chapter 04
00:18:54.842 : en:Chapter 05
00:24:36.766 : en:Chapter 06
00:28:44.431 : en:Chapter 07
00:31:41.232 : en:Chapter 08
00:36:22.096 : en:Chapter 09
00:42:52.736 : en:Chapter 10
00:47:03.153 : en:Chapter 11
00:51:05.854 : en:Chapter 12
00:56:38.395 : en:Chapter 13
01:01:18.132 : en:Chapter 14
01:06:50.631 : en:Chapter 15
01:13:47.131 : en:Chapter 16
01:17:55.087 : en:Chapter 17
01:23:27.794 : en:Chapter 18
01:28:40.315 : en:Chapter 19
01:30:42.520 : en:Chapter 20




回复下载:





游客,如果您要查看本帖隐藏内容请回复,您还可以免扣高清币免回复下载:https://www.85lou.com/plugin.php?id=wyfaka_url:url


回复

使用道具 举报

超级明星

高清币
471
金钱
10431
鲜花
0
在线时间
2544 小时
最后登录
2019-6-24
发表于 2019-6-14 15:44:17 | 显示全部楼层
楼主发贴辛苦了,谢谢楼主分享!我觉得中国高清论坛是注册对了!
回复 支持 反对

使用道具 举报

永恒神话

高清币
10567
金钱
34199
鲜花
10
在线时间
2269 小时
最后登录
2019-6-22
发表于 2019-6-14 15:55:28 | 显示全部楼层

这个帖子不回对不起自己!我想我是一天也不能离开中国高清论坛
回复 支持 反对

使用道具 举报

金鸡奖主角

高清币
747
金钱
2606
鲜花
0
在线时间
546 小时
最后登录
2019-6-24
发表于 2019-6-14 16:02:40 | 显示全部楼层
感谢分享精彩好电影!!!
回复 支持 反对

使用道具 举报

金鸡奖主角

高清币
115
金钱
3633
鲜花
0
在线时间
452 小时
最后登录
2019-6-24
发表于 2019-6-14 16:24:43 | 显示全部楼层
楼主发贴辛苦了,谢谢楼主分享!我觉得中国高清论坛是注册对了!
回复 支持 反对

使用道具 举报

永恒神话

高清币
6802
金钱
25087
鲜花
0
在线时间
4965 小时
最后登录
2019-6-24
发表于 2019-6-14 16:29:00 | 显示全部楼层

感谢楼主的无私分享!要想中国高清论坛好 就靠你我他
回复 支持 反对

使用道具 举报

金鸡奖主角

高清币
1769
金钱
2974
鲜花
0
在线时间
374 小时
最后登录
2019-6-24
发表于 2019-6-14 16:39:07 | 显示全部楼层
这是安慰我啊~~还是垮我啊???怎么感觉又被扁了啊
回复 支持 反对

使用道具 举报

金鸡奖主角

高清币
317
金钱
4108
鲜花
0
在线时间
699 小时
最后登录
2019-6-24
发表于 2019-6-14 16:45:11 | 显示全部楼层

楼主太厉害了!楼主,电影应该很好看我觉得中国高清论坛真是个好地方!
回复 支持 反对

使用道具 举报

超级明星

高清币
2016
金钱
5064
鲜花
0
在线时间
706 小时
最后登录
2019-6-24
发表于 2019-6-14 17:33:40 | 显示全部楼层
精彩影片,感谢分享。
回复 支持 反对

使用道具 举报

金鸡奖主角

高清币
119
金钱
5491
鲜花
0
在线时间
828 小时
最后登录
2019-6-19
发表于 2019-6-14 17:47:25 | 显示全部楼层

楼主太厉害了!楼主,电影应该很好看我觉得中国高清论坛真是个好地方!
回复 支持 反对

使用道具 举报

懒得打字嘛,点击右侧快捷回复 【右侧内容,后台自定义】
您需要登录后才可以回帖 登录 | 立即注册

本版积分规则

QQ|手机版|小黑屋|中国高清论坛 ( 黔ICP备16007815号-1 )

GMT+8, 2019-6-24 23:30 , Processed in 0.050969 second(s), 28 queries .

Powered by Discuz! X3.4

© 2001-2017 Comsenz Inc.

快速回复 返回顶部 返回列表