请选择 进入手机版 | 继续访问电脑版

中国高清论坛

 找回密码
 立即注册
搜索
查看: 519|回复: 107

[REMUX] 寻觅之境.Taking.Earth.2017.1080p.BluRay.REMUX.AVC.DTS-HD.MA.5.1-FGT

  [复制链接]

高清发布组

高清币
255
金钱
861
鲜花
0
在线时间
149 小时
最后登录
2019-6-23
发表于 2019-6-14 15:41:37 | 显示全部楼层 |阅读模式


◎译  名 寻觅之境 / Finding Cam / 英雄联盟
◎片  名 Taking Earth
◎年  代 2016
◎产  地 南非
◎类  别 科幻
◎语  言 英语
◎IMDb评分 2.7/10 from 938 users
◎IMDb链接 http://www.imdb.com/title/tt4290974
◎豆瓣评分 2.7/10 from 225 users
◎豆瓣链接 https://movie.douban.com/subject/26890322/
◎片  长 100分钟
◎导  演 Grant Humphreys
◎编  剧 Michael Harrison / Grant Humphreys / Grant Knight
◎主  演 Ronan Quarmby
      Brad Richards
      Barbara Harrison
      Marco Torlage
      Richard Sorensen


◎标  签 科幻 | 南非 | 烂片 | 垃圾中的战斗机 | 原来发现真的可以0分差评…………真是可以一直拉到结尾的电影…… | 烂 | 我居然看了,怎么办 | 2016

◎简  介

  An unexplainable event that has thrust the world into chaos brings two survivors together as a portion of the worlds population presumably infected by a strange outbreak, hunt them. These Infected Ones (IO’s) seem motivated by an obsession to rein chaos with a need for tasting blood. The two survivors; David (Ronan Quarmby) and a teenager named Cameron (Marco Torlage) form a bond as they try to find their lost loved ones, but the young man has a secret about the outbreak – all is not as it seems. A race from another world are orchestrating this attack on Earth as they hide in the skies, searching for the one out of seven billion people… searching for Cameron. Controlling the IO’s who are gripped in a bicameral state, time is running out as the ‘Visitors’ patience is waning and a greater threat faces our world if the boy is not found. David must help Cameron find his mom, Ellen (Barbara Harrison) and do what they can to stop the alien attack.

Video
ID : 1
Format : AVC
Format/Info : Advanced Video Codec
Format profile : High@L4.1
Format settings : CABAC / 2 Ref Frames
Format settings, CABAC : Yes
Format settings, ReFrames : 2 frames
Codec ID : V_MPEG4/ISO/AVC
Duration : 1 h 39 min
Bit rate mode : Variable
Bit rate : 20.4 Mb/s
Maximum bit rate : 30.2 Mb/s
Width : 1 920 pixels
Height : 1 080 pixels
Display aspect ratio : 16:9
Frame rate mode : Constant
Frame rate : 24.000 FPS
Color space : YUV
Chroma subsampling : 4:2:0
Bit depth : 8 bits
Scan type : Progressive
Bits/(Pixel*Frame) : 0.411
Stream size : 14.3 GiB (93%)
Title : Taking.Earth.2017.1080p.BluRay.REMUX.AVC.DTS-HD.MA.5.1-FGT
Language : English
Default : No
Forced : No

Audio
ID : 2
Format : DTS XLL
Format/Info : Digital Theater Systems
Commercial name : DTS-HD Master Audio
Codec ID : A_DTS
Duration : 1 h 39 min
Bit rate mode : Variable
Bit rate : 1 485 kb/s
Channel(s) : 6 channels
Channel layout : C L R Ls Rs LFE
Sampling rate : 48.0 kHz
Frame rate : 93.750 FPS (512 SPF)
Bit depth : 16 bits
Compression mode : Lossless
Stream size : 1.04 GiB (7%)
Title : Taking.Earth.2017.1080p.BluRay.REMUX.AVC.DTS-HD.MA.5.1-FGT
Language : English
Default : Yes
Forced : No

Menu
00:00:00.000 : en:Chapter 01
00:01:39.250 : en:Chapter 02
00:09:34.291 : en:Chapter 03
00:15:43.791 : en:Chapter 04
00:26:40.666 : en:Chapter 05
00:38:21.916 : en:Chapter 06
00:50:07.625 : en:Chapter 07
01:02:27.458 : en:Chapter 08
01:13:43.208 : en:Chapter 09
01:20:36.500 : en:Chapter 10
01:26:21.000 : en:Chapter 11
01:35:17.833 : en:Chapter 12




回复下载:





游客,如果您要查看本帖隐藏内容请回复,您还可以免扣高清币免回复下载:https://www.85lou.com/plugin.php?id=wyfaka_url:url


回复

使用道具 举报

知名艺人

高清币
5
金钱
123
鲜花
0
在线时间
13 小时
最后登录
2019-6-17
发表于 2019-6-14 15:57:08 | 显示全部楼层

感谢分享精彩好电影!!!
回复 支持 反对

使用道具 举报

金鸡奖主角

高清币
747
金钱
2608
鲜花
0
在线时间
546 小时
最后登录
2019-6-25
发表于 2019-6-14 16:02:22 | 显示全部楼层
感谢分享精彩好电影!!!
回复 支持 反对

使用道具 举报

永恒神话

高清币
10567
金钱
34199
鲜花
10
在线时间
2269 小时
最后登录
2019-6-22
发表于 2019-6-14 16:11:51 | 显示全部楼层

既然你诚信诚意的推荐了,那我就勉为其难的看看吧!中国高清论坛不走平凡路。
回复 支持 反对

使用道具 举报

金鸡奖主角

高清币
115
金钱
3633
鲜花
0
在线时间
452 小时
最后登录
2019-6-24
发表于 2019-6-14 16:24:20 | 显示全部楼层
楼主发贴辛苦了,谢谢楼主分享!我觉得中国高清论坛是注册对了!
回复 支持 反对

使用道具 举报

永恒神话

高清币
6802
金钱
25087
鲜花
0
在线时间
4968 小时
最后登录
2019-6-24
发表于 2019-6-14 16:27:37 | 显示全部楼层

感谢楼主的无私分享!要想中国高清论坛好 就靠你我他
回复 支持 反对

使用道具 举报

金鸡奖主角

高清币
317
金钱
4108
鲜花
0
在线时间
699 小时
最后登录
2019-6-24
发表于 2019-6-14 16:45:29 | 显示全部楼层

这个帖子不回对不起自己!我想我是一天也不能离开中国高清论坛
回复 支持 反对

使用道具 举报

影坛巨星

高清币
1326
金钱
8809
鲜花
0
在线时间
1121 小时
最后登录
2019-6-24
发表于 2019-6-14 16:54:01 | 显示全部楼层

这个帖子不回对不起自己!我想我是一天也不能离开中国高清论坛
回复 支持 反对

使用道具 举报

金鸡奖主角

高清币
39
金钱
3311
鲜花
0
在线时间
644 小时
最后登录
2019-6-22
发表于 2019-6-14 17:01:21 | 显示全部楼层
楼主发贴辛苦了,谢谢楼主分享!我觉得中国高清论坛是注册对了!
回复 支持 反对

使用道具 举报

好莱坞明星

高清币
763
金钱
5913
鲜花
-50
在线时间
752 小时
最后登录
2019-6-24
发表于 2019-6-14 17:06:49 | 显示全部楼层
楼主发贴辛苦了,谢谢楼主分享!我觉得中国高清论坛是注册对了!
回复 支持 反对

使用道具 举报

懒得打字嘛,点击右侧快捷回复 【右侧内容,后台自定义】
您需要登录后才可以回帖 登录 | 立即注册

本版积分规则

QQ|手机版|小黑屋|中国高清论坛 ( 黔ICP备16007815号-1 )

GMT+8, 2019-6-25 00:17 , Processed in 0.055128 second(s), 28 queries .

Powered by Discuz! X3.4

© 2001-2017 Comsenz Inc.

快速回复 返回顶部 返回列表