请选择 进入手机版 | 继续访问电脑版

中国高清论坛

 找回密码
 立即注册
搜索
查看: 773|回复: 187

[REMUX] 我们/我们·异 Us.2019.1080p.BluRay.REMUX.AVC.DTS-HD.MA.TrueHD.7.1-FGT 32.17GB

  [复制链接]

龙行天下

高清币
36122
金钱
8779
鲜花
50
在线时间
1992 小时
最后登录
2019-6-24
发表于 2019-6-15 03:39:58 | 显示全部楼层 |阅读模式


◎译  名 我们 / 我们·异(港)
◎片  名 Us
◎年  代 2019
◎产  地 美国
◎类  别 惊悚 / 恐怖
◎语  言 英语
◎上映日期 2019-03-08(西南偏南电影节) / 2019-03-22(美国)
◎IMDb评分 7.3/10 from 78180 users
◎IMDb链接 http://www.imdb.com/title/tt6857112
◎豆瓣评分 7.4/10 from 5341 users
◎豆瓣链接 https://movie.douban.com/subject/27053945/
◎片  长 116分钟
◎导  演 乔丹·皮尔 Jordan Peele
◎编  剧 乔丹·皮尔 Jordan Peele
◎主  演 露皮塔·尼永奥 Lupita Nyong'o
      温斯顿·杜克 Winston Duke
      伊丽莎白·莫斯 Elisabeth Moss
      蒂姆·海德克 Tim Heidecker
      莎哈迪·赖特·约瑟夫 Shahadi Wright Joseph
      伊万·艾利克斯 Evan Alex
      叶海亚·阿卜杜勒-迈丁 Yahya Abdul-Mateen II
      安娜·迪奥普 Anna Diop
      卡莉·谢尔顿 Cali Sheldon
      诺尔·谢尔顿 Noelle Sheldon
      麦迪逊·柯里 Madison Curry
      纳皮埃拉·格罗夫斯 Napiera Groves
      杜克·尼科尔森 Duke Nicholson
      纳丹·哈灵顿 Nathan Harrington
      卡拉·海沃德 Kara Hayward


◎标  签 恐怖 | 惊悚 | 悬疑 | 美国 | 2019 | 剧情 | 黑人 | 人性

◎简  介

  一对名为阿德莱德和盖博的夫妻带着孩子到海滨度假,这里曾经是阿莱德莱童年的娱乐场所。在海滨与泰勒一家玩了一天之后,阿德莱德愈发地无法从往昔的伤痛中走出,他越来越觉得自己的家庭将要发生灾难。到了晚上,他们一家甚至看到有四个人手拉手在行车道上站立,似乎有更多诡异的事情等待着他们。



Video
ID : 1
Format : AVC
Format/Info : Advanced Video Codec
Format profile : High@L4.1
Format settings : CABAC / 4 Ref Frames
Format settings, CABAC : Yes
Format settings, ReFrames : 4 frames
Codec ID : V_MPEG4/ISO/AVC
Duration : 1 h 56 min
Bit rate mode : Variable
Bit rate : 29.3 Mb/s
Maximum bit rate : 32.7 Mb/s
Width : 1 920 pixels
Height : 1 080 pixels
Display aspect ratio : 16:9
Frame rate mode : Constant
Frame rate : 23.976 (24000/1001) FPS
Color space : YUV
Chroma subsampling : 4:2:0
Bit depth : 8 bits
Scan type : Progressive
Bits/(Pixel*Frame) : 0.589
Stream size : 23.8 GiB (74%)
Title : Us.2019.1080p.BluRay.REMUX.AVC.DTS-HD.MA.TrueHD.7.1.Atmos-FGT
Language : English
Default : No
Forced : No

Audio #1
ID : 2
Format : MLP FBA 16-ch
Format/Info : Meridian Lossless Packing FBA with 16-channel presentation
Commercial name : Dolby TrueHD with Dolby Atmos
Codec ID : A_TRUEHD
Duration : 1 h 56 min
Bit rate mode : Variable
Bit rate : 3 177 kb/s
Maximum bit rate : 4 872 kb/s
Channel(s) : 8 channels
Channel layout : L R C LFE Ls Rs Lb Rb
Sampling rate : 48.0 kHz
Frame rate : 1 200.000 FPS (40 SPF)
Compression mode : Lossless
Stream size : 2.58 GiB (8%)
Title : Us.2019.1080p.BluRay.REMUX.AVC.DTS-HD.MA.TrueHD.7.1.Atmos-FGT
Language : English
Default : Yes
Forced : No
Number of dynamic objects : 11
Bed channel count : 1 channel
Bed channel configuration : LFE

Audio #2
ID : 3
Format : DTS XLL
Format/Info : Digital Theater Systems
Commercial name : DTS-HD Master Audio
Codec ID : A_DTS
Duration : 1 h 56 min
Bit rate mode : Variable
Bit rate : 3 912 kb/s
Channel(s) : 8 channels
Channel layout : C L R LFE Lb Rb Lss Rss
Sampling rate : 48.0 kHz
Frame rate : 93.750 FPS (512 SPF)
Bit depth : 24 bits
Compression mode : Lossless
Stream size : 3.18 GiB (10%)
Title : Us.2019.1080p.BluRay.REMUX.AVC.DTS-HD.MA.TrueHD.7.1.Atmos-FGT
Language : English
Default : No
Forced : No

Audio #3
ID : 4
Format : AC-3
Format/Info : Audio Coding 3
Commercial name : Dolby Digital
Codec ID : A_AC3
Duration : 1 h 56 min
Bit rate mode : Constant
Bit rate : 448 kb/s
Channel(s) : 6 channels
Channel layout : L R C LFE Ls Rs
Sampling rate : 48.0 kHz
Frame rate : 31.250 FPS (1536 SPF)
Bit depth : 16 bits
Compression mode : Lossy
Stream size : 373 MiB (1%)
Title : Us.2019.1080p.BluRay.REMUX.AVC.DTS-HD.MA.TrueHD.7.1.Atmos-FGT
Language : English
Service kind : Complete Main
Default : No
Forced : No

Audio #4
ID : 5
Format : E-AC-3
Format/Info : Enhanced AC-3
Commercial name : Dolby Digital Plus
Format profile : Blu-ray Disc
Codec ID : A_EAC3
Duration : 1 h 56 min
Bit rate mode : Constant
Bit rate : 768 kb/s
Channel(s) : 8 channels
Channel layout : L R C LFE Ls Rs Lb Rb
Sampling rate : 48.0 kHz
Frame rate : 31.250 FPS (1536 SPF)
Compression mode : Lossy
Stream size : 640 MiB (2%)
Title : Us.2019.1080p.BluRay.REMUX.AVC.DTS-HD.MA.TrueHD.7.1.Atmos-FGT
Language : Spanish
Service kind : Complete Main
Default : No
Forced : No

Audio #5
ID : 6
Format : AC-3
Format/Info : Audio Coding 3
Commercial name : Dolby Digital
Codec ID : A_AC3
Duration : 1 h 56 min
Bit rate mode : Constant
Bit rate : 448 kb/s
Channel(s) : 6 channels
Channel layout : L R C LFE Ls Rs
Sampling rate : 48.0 kHz
Frame rate : 31.250 FPS (1536 SPF)
Bit depth : 16 bits
Compression mode : Lossy
Stream size : 373 MiB (1%)
Title : Us.2019.1080p.BluRay.REMUX.AVC.DTS-HD.MA.TrueHD.7.1.Atmos-FGT
Language : Spanish
Service kind : Complete Main
Default : No
Forced : No

Audio #6
ID : 7
Format : E-AC-3
Format/Info : Enhanced AC-3
Commercial name : Dolby Digital Plus
Format profile : Blu-ray Disc
Codec ID : A_EAC3
Duration : 1 h 56 min
Bit rate mode : Constant
Bit rate : 768 kb/s
Channel(s) : 8 channels
Channel layout : L R C LFE Ls Rs Lb Rb
Sampling rate : 48.0 kHz
Frame rate : 31.250 FPS (1536 SPF)
Compression mode : Lossy
Stream size : 640 MiB (2%)
Title : Us.2019.1080p.BluRay.REMUX.AVC.DTS-HD.MA.TrueHD.7.1.Atmos-FGT
Language : French
Service kind : Complete Main
Default : No
Forced : No

Audio #7
ID : 8
Format : AC-3
Format/Info : Audio Coding 3
Commercial name : Dolby Digital
Codec ID : A_AC3
Duration : 1 h 56 min
Bit rate mode : Constant
Bit rate : 448 kb/s
Channel(s) : 6 channels
Channel layout : L R C LFE Ls Rs
Sampling rate : 48.0 kHz
Frame rate : 31.250 FPS (1536 SPF)
Bit depth : 16 bits
Compression mode : Lossy
Stream size : 373 MiB (1%)
Title : Us.2019.1080p.BluRay.REMUX.AVC.DTS-HD.MA.TrueHD.7.1.Atmos-FGT
Language : French
Service kind : Complete Main
Default : No
Forced : No

Audio #8
ID : 9
Format : AC-3
Format/Info : Audio Coding 3
Commercial name : Dolby Digital
Codec ID : A_AC3
Duration : 1 h 56 min
Bit rate mode : Constant
Bit rate : 192 kb/s
Channel(s) : 2 channels
Channel layout : L R
Sampling rate : 48.0 kHz
Frame rate : 31.250 FPS (1536 SPF)
Bit depth : 16 bits
Compression mode : Lossy
Stream size : 160 MiB (0%)
Title : Us.2019.1080p.BluRay.REMUX.AVC.DTS-HD.MA.TrueHD.7.1.Atmos-FGT
Language : English
Service kind : Complete Main
Default : No
Forced : No

Text #1
ID : 10
Format : UTF-8
Codec ID : S_TEXT/UTF8
Codec ID/Info : UTF-8 Plain Text
Duration : 1 h 52 min
Bit rate : 41 b/s
Count of elements : 1066
Stream size : 34.3 KiB (0%)
Title : English-SRT
Language : English
Default : Yes
Forced : No

Text #2
ID : 11
Format : PGS
Muxing mode : zlib
Codec ID : S_HDMV/PGS
Codec ID/Info : Picture based subtitle format used on BDs/HD-DVDs
Duration : 1 h 53 min
Bit rate : 35.4 kb/s
Count of elements : 2751
Stream size : 28.8 MiB (0%)
Title : English-PGS
Language : English
Default : No
Forced : No

Text #3
ID : 12
Format : PGS
Muxing mode : zlib
Codec ID : S_HDMV/PGS
Codec ID/Info : Picture based subtitle format used on BDs/HD-DVDs
Duration : 1 h 55 min
Bit rate : 25.2 kb/s
Count of elements : 2100
Stream size : 20.8 MiB (0%)
Title : Spanish-PGS
Language : Spanish
Default : No
Forced : No

Text #4
ID : 13
Format : PGS
Muxing mode : zlib
Codec ID : S_HDMV/PGS
Codec ID/Info : Picture based subtitle format used on BDs/HD-DVDs
Duration : 1 h 55 min
Bit rate : 22.1 kb/s
Count of elements : 1808
Stream size : 18.3 MiB (0%)
Title : French-PGS
Language : French
Default : No
Forced : No

Text #5
ID : 14
Format : PGS
Muxing mode : zlib
Codec ID : S_HDMV/PGS
Codec ID/Info : Picture based subtitle format used on BDs/HD-DVDs
Duration : 1 h 51 min
Bit rate : 278 b/s
Count of elements : 24
Stream size : 228 KiB (0%)
Title : Spanish-FORCED-PGS
Language : Spanish
Default : No
Forced : No

Text #6
ID : 15
Format : PGS
Muxing mode : zlib
Codec ID : S_HDMV/PGS
Codec ID/Info : Picture based subtitle format used on BDs/HD-DVDs
Duration : 1 h 55 min
Bit rate : 409 b/s
Count of elements : 28
Stream size : 346 KiB (0%)
Title : French-FORCED-PGS
Language : French
Default : No
Forced : No

Menu
00:00:00.000 : en:Chapter 01
00:06:05.156 : en:Chapter 02
00:11:25.351 : en:Chapter 03
00:17:12.114 : en:Chapter 04
00:23:24.653 : en:Chapter 05
00:29:31.519 : en:Chapter 06
00:36:07.790 : en:Chapter 07
00:41:07.756 : en:Chapter 08
00:48:08.302 : en:Chapter 09
00:55:43.256 : en:Chapter 10
01:02:59.984 : en:Chapter 11
01:07:49.356 : en:Chapter 12
01:14:25.210 : en:Chapter 13
01:20:12.015 : en:Chapter 14
01:25:25.870 : en:Chapter 15
01:29:44.045 : en:Chapter 16
01:35:21.674 : en:Chapter 17
01:40:54.548 : en:Chapter 18
01:47:36.908 : en:Chapter 19
01:52:14.394 : en:Chapter 20



游客,如果您要查看本帖隐藏内容请回复,您还可以免扣高清币免回复下载:https://www.85lou.com/plugin.php?id=wyfaka_url:url

#专属夏天的歌词#后来才知道, 好朋友不是通过努力争取来的, 而是在各自的道路上奔跑时遇见的。” ——刘同《向着光亮那方》
回复

使用道具 举报

金鸡奖主角

高清币
39
金钱
3311
鲜花
0
在线时间
644 小时
最后登录
2019-6-22
发表于 2019-6-15 03:45:01 | 显示全部楼层
楼主发贴辛苦了,谢谢楼主分享!我觉得中国高清论坛是注册对了!
回复 支持 反对

使用道具 举报

天王巨星

高清币
108
金钱
2833
鲜花
0
在线时间
375 小时
最后登录
2019-6-24
发表于 2019-6-15 04:28:48 | 显示全部楼层

这个帖子不回对不起自己!我想我是一天也不能离开中国高清论坛
回复 支持 反对

使用道具 举报

永恒神话

高清币
10567
金钱
34199
鲜花
10
在线时间
2269 小时
最后登录
2019-6-22
发表于 2019-6-15 04:51:40 | 显示全部楼层

感谢楼主的无私分享!要想中国高清论坛好 就靠你我他
回复 支持 反对

使用道具 举报

天王巨星

高清币
1
金钱
3109
鲜花
0
在线时间
630 小时
最后登录
2019-6-24
发表于 2019-6-15 05:38:49 | 显示全部楼层
楼主发贴辛苦了,谢谢楼主分享!我觉得中国高清论坛是注册对了!
回复 支持 反对

使用道具 举报

人气偶像

高清币
34
金钱
578
鲜花
0
在线时间
89 小时
最后登录
2019-6-23
发表于 2019-6-15 05:48:45 | 显示全部楼层
偷天帕克偷天帕克偷天帕克偷天帕克
回复 支持 反对

使用道具 举报

人气偶像

高清币
34
金钱
578
鲜花
0
在线时间
89 小时
最后登录
2019-6-23
发表于 2019-6-15 05:49:21 | 显示全部楼层
偷天帕克偷天帕克偷天帕克
回复 支持 反对

使用道具 举报

天王巨星

高清币
27
金钱
2396
鲜花
0
在线时间
522 小时
最后登录
2019-6-24
发表于 2019-6-15 06:14:40 | 显示全部楼层

这个帖子不回对不起自己!我想我是一天也不能离开中国高清论坛
回复 支持 反对

使用道具 举报

天王巨星

高清币
706
金钱
1375
鲜花
0
在线时间
157 小时
最后登录
2019-6-24
发表于 2019-6-15 06:39:49 | 显示全部楼层
谢谢楼主分享
回复 支持 反对

使用道具 举报

天王巨星

高清币
42
金钱
2159
鲜花
0
在线时间
689 小时
最后登录
2019-6-24
发表于 2019-6-15 06:45:46 | 显示全部楼层

这个帖子不回对不起自己!我想我是一天也不能离开中国高清论坛
回复 支持 反对

使用道具 举报

懒得打字嘛,点击右侧快捷回复 【右侧内容,后台自定义】
您需要登录后才可以回帖 登录 | 立即注册

本版积分规则

QQ|手机版|小黑屋|中国高清论坛 ( 黔ICP备16007815号-1 )

GMT+8, 2019-6-24 23:37 , Processed in 0.053179 second(s), 28 queries .

Powered by Discuz! X3.4

© 2001-2017 Comsenz Inc.

快速回复 返回顶部 返回列表