请选择 进入手机版 | 继续访问电脑版

中国高清论坛

 找回密码
 立即注册
搜索
查看: 1802|回复: 223

[REMUX] 黑疯婆子的葬礼 A.Madea.2019.1080p.BluRay.REMUX.AVC.DTS-HD.MA.5.1-FGT 30.26GB

  [复制链接]

龙行天下

高清币
38510
金钱
9680
鲜花
50
在线时间
2380 小时
最后登录
2019-9-16
发表于 2019-6-15 03:52:40 | 显示全部楼层 |阅读模式


◎译  名 黑疯婆子的葬礼 / Tyler Perry's a Madea Family Funeral
◎片  名 A Madea Family Funeral
◎年  代 2019
◎产  地 美国
◎类  别 喜剧
◎语  言 英语
◎上映日期 2019-03-01(美国)
◎IMDb评分 4.2/10 from 1676 users
◎IMDb链接 http://www.imdb.com/title/tt7054636
◎豆瓣评分 0/10 from 0 users
◎豆瓣链接 https://movie.douban.com/subject/30162058/
◎片  长 109分钟
◎导  演 泰勒·派瑞 Tyler Perry
◎编  剧 泰勒·派瑞 Tyler Perry
◎主  演 泰勒·派瑞 Tyler Perry
      凯西·戴维斯 Cassi Davis
      派翠丝·拉弗莉 Patrice Lovely
      迈克·泰森 Mike Tyson
      西雷拉·佩顿 Ciera Payton
      杰·史密斯 Kj Smith
      昆·沃尔特斯 Quin Walters
      艾里耶·米兰达 Aeriél Miranda
      韦米蒂娅·埃拉恩 Vermyttya Erahn
      詹·哈珀 Jen Harper
      罗姆·弗林 Rome Flynn
      大卫·奥唐家 David Otunga
      阿莱·卡特斯 Ary Katz
      乔尔·拉什 Joel Rush
      玛丽索尔·科雷亚 Marisol Correa
      大卫·邓斯顿 David Dunston
      雷纳·加拉赫 Renah Gallagher
      肖恩·麦克米伦 Shaun McMillan


◎标  签 剧情 | 美国 | 喜剧 | 2019 | 2010s | 大陆

◎简  介

  “黑疯婆子”系列电影始于2005年,由美国黑人电影人泰勒·派瑞(Tyler Perry)打造。自《疯女人日记》(Diary of a Mad Black Woman)2005年2月上映以来,该系列于14年间推出《黑疯婆子的万圣节》(Boo! A Madea Halloween)、《黑疯婆子的快乐大家庭》(Madea's Big Happy Family)、《黑疯婆子闹监狱》(Madea Goes to Jail)等9部影片,展开一段又一段“黑疯婆子”疯狂搞笑之旅。
最新亮相的《黑疯婆子的家庭葬礼》,继续由今年50岁的泰勒·派瑞担纲编剧、导演和主演,讲述一场意想不到的葬礼引出家族秘密的滑稽故事。





Video
ID : 1
Format : AVC
Format/Info : Advanced Video Codec
Format profile : High@L4.1
Format settings : CABAC / 4 Ref Frames
Format settings, CABAC : Yes
Format settings, ReFrames : 4 frames
Codec ID : V_MPEG4/ISO/AVC
Duration : 1 h 49 min
Bit rate mode : Variable
Bit rate : 35.4 Mb/s
Maximum bit rate : 37.0 Mb/s
Width : 1 920 pixels
Height : 1 080 pixels
Display aspect ratio : 16:9
Frame rate mode : Constant
Frame rate : 23.976 (24000/1001) FPS
Color space : YUV
Chroma subsampling : 4:2:0
Bit depth : 8 bits
Scan type : Progressive
Bits/(Pixel*Frame) : 0.712
Stream size : 27.1 GiB (90%)
Title : A.Madea.Family.Funeral.2019.1080p.BluRay.REMUX.AVC.DTS-HD.MA.5.1-FGT
Language : English
Default : No
Forced : No

Audio #1
ID : 2
Format : DTS XLL
Format/Info : Digital Theater Systems
Commercial name : DTS-HD Master Audio
Codec ID : A_DTS
Duration : 1 h 49 min
Bit rate mode : Variable
Bit rate : 3 430 kb/s
Channel(s) : 6 channels
Channel layout : C L R Ls Rs LFE
Sampling rate : 48.0 kHz
Frame rate : 93.750 FPS (512 SPF)
Bit depth : 24 bits
Compression mode : Lossless
Stream size : 2.62 GiB (9%)
Title : A.Madea.Family.Funeral.2019.1080p.BluRay.REMUX.AVC.DTS-HD.MA.5.1-FGT
Language : English
Default : Yes
Forced : No

Audio #2
ID : 3
Format : AC-3
Format/Info : Audio Coding 3
Commercial name : Dolby Digital
Codec ID : A_AC3
Duration : 1 h 49 min
Bit rate mode : Constant
Bit rate : 448 kb/s
Channel(s) : 6 channels
Channel layout : L R C LFE Ls Rs
Sampling rate : 48.0 kHz
Frame rate : 31.250 FPS (1536 SPF)
Bit depth : 16 bits
Compression mode : Lossy
Stream size : 351 MiB (1%)
Title : A.Madea.Family.Funeral.2019.1080p.BluRay.REMUX.AVC.DTS-HD.MA.5.1-FGT
Language : Spanish
Service kind : Complete Main
Default : No
Forced : No

Audio #3
ID : 4
Format : AC-3
Format/Info : Audio Coding 3
Commercial name : Dolby Digital
Codec ID : A_AC3
Duration : 1 h 49 min
Bit rate mode : Constant
Bit rate : 192 kb/s
Channel(s) : 2 channels
Channel layout : L R
Sampling rate : 48.0 kHz
Frame rate : 31.250 FPS (1536 SPF)
Bit depth : 16 bits
Compression mode : Lossy
Stream size : 150 MiB (0%)
Title : A.Madea.Family.Funeral.2019.1080p.BluRay.REMUX.AVC.DTS-HD.MA.5.1-FGT
Language : English
Service kind : Complete Main
Default : No
Forced : No

Text #1
ID : 5
Format : UTF-8
Codec ID : S_TEXT/UTF8
Codec ID/Info : UTF-8 Plain Text
Duration : 1 h 44 min
Bit rate : 116 b/s
Count of elements : 2571
Stream size : 88.8 KiB (0%)
Title : English-SRT
Language : English
Default : Yes
Forced : No

Text #2
ID : 6
Format : PGS
Muxing mode : zlib
Codec ID : S_HDMV/PGS
Codec ID/Info : Picture based subtitle format used on BDs/HD-DVDs
Duration : 1 h 44 min
Bit rate : 85.4 kb/s
Count of elements : 5299
Stream size : 63.8 MiB (0%)
Title : English-PGS
Language : English
Default : No
Forced : No

Text #3
ID : 7
Format : PGS
Muxing mode : zlib
Codec ID : S_HDMV/PGS
Codec ID/Info : Picture based subtitle format used on BDs/HD-DVDs
Duration : 1 h 44 min
Bit rate : 73.9 kb/s
Count of elements : 5046
Stream size : 55.2 MiB (0%)
Title : Spanish-PGS
Language : Spanish
Default : No
Forced : No



Menu
00:00:00.000 : en:Chapter 01
00:04:58.506 : en:Chapter 02
00:12:28.122 : en:Chapter 03
00:21:00.759 : en:Chapter 04
00:27:56.966 : en:Chapter 05
00:31:41.733 : en:Chapter 06
00:38:50.244 : en:Chapter 07
00:45:35.941 : en:Chapter 08
00:52:18.426 : en:Chapter 09
00:57:36.119 : en:Chapter 10
01:02:48.097 : en:Chapter 11
01:08:37.488 : en:Chapter 12
01:19:38.982 : en:Chapter 13
01:32:58.698 : en:Chapter 14
01:35:08.828 : en:Chapter 15
01:42:07.412 : en:Chapter 16



游客,如果您要查看本帖隐藏内容请回复,您还可以免扣高清币免回复下载:https://www.85lou.com/plugin.php?id=wyfaka_url:url

回复

使用道具 举报

superstar

高清币
2695
金钱
11735
鲜花
0
在线时间
1558 小时
最后登录
2019-9-17
发表于 2019-6-15 08:29:01 | 显示全部楼层
谢谢楼主分享
回复 支持 1 反对 0

使用道具 举报

跑龙套

高清币
2
金钱
26
鲜花
0
在线时间
3 小时
最后登录
2019-7-3
发表于 2019-6-15 04:20:56 | 显示全部楼层
1111111111111111111111111111111111
回复 支持 反对

使用道具 举报

金鸡奖主角

高清币
122
金钱
3265
鲜花
0
在线时间
418 小时
最后登录
2019-9-16
发表于 2019-6-15 04:29:33 | 显示全部楼层

楼主太厉害了!楼主,电影应该很好看我觉得中国高清论坛真是个好地方!
回复 支持 反对

使用道具 举报

永恒神话

高清币
12826
金钱
37377
鲜花
10
在线时间
2485 小时
最后登录
2019-9-17
发表于 2019-6-15 04:48:14 | 显示全部楼层

论坛不能没有像楼主这样的人才啊!我会一直支持中国高清论坛
回复 支持 反对

使用道具 举报

VIP贵宾

高清币
3060
金钱
17873
鲜花
0
在线时间
3381 小时
最后登录
2019-9-17
发表于 2019-6-15 05:25:49 | 显示全部楼层
楼主发贴辛苦了,谢谢楼主分享!我觉得中国高清论坛是注册对了!
回复 支持 反对

使用道具 举报

金鸡奖主角

高清币
1153
金钱
2278
鲜花
0
在线时间
380 小时
最后登录
2019-9-16
发表于 2019-6-15 06:38:20 | 显示全部楼层
谢谢楼主分享
回复 支持 反对

使用道具 举报

金鸡奖主角

高清币
680
金钱
3289
鲜花
0
在线时间
409 小时
最后登录
2019-9-16
发表于 2019-6-15 06:53:35 | 显示全部楼层

楼主太厉害了!楼主,电影应该很好看我觉得中国高清论坛真是个好地方!
回复 支持 反对

使用道具 举报

永恒神话

高清币
5179
金钱
23000
鲜花
0
在线时间
3269 小时
最后登录
2019-9-17
发表于 2019-6-15 06:59:49 | 显示全部楼层
谢楼主分享,有你更精彩
回复 支持 反对

使用道具 举报

金鸡奖主角

高清币
143
金钱
5357
鲜花
0
在线时间
794 小时
最后登录
2019-9-15
发表于 2019-6-15 07:14:50 | 显示全部楼层

楼主太厉害了!楼主,电影应该很好看我觉得中国高清论坛真是个好地方!
回复 支持 反对

使用道具 举报

天王巨星

高清币
233
金钱
2014
鲜花
0
在线时间
249 小时
最后登录
2019-9-16
发表于 2019-6-15 07:16:30 | 显示全部楼层
楼主发贴辛苦了,谢谢楼主分享!我觉得中国高清论坛是注册对了!
回复 支持 反对

使用道具 举报

懒得打字嘛,点击右侧快捷回复 【右侧内容,后台自定义】
您需要登录后才可以回帖 登录 | 立即注册

本版积分规则

QQ|手机版|小黑屋|中国高清论坛 ( 黔ICP备16007815号-1 )

GMT+8, 2019-9-17 20:44 , Processed in 0.059793 second(s), 26 queries .

Powered by Discuz! X3.4

© 2001-2017 Comsenz Inc.

快速回复 返回顶部 返回列表