请选择 进入手机版 | 继续访问电脑版

中国高清论坛

 找回密码
 立即注册
搜索
查看: 4991|回复: 1593

[动作片] 地狱男爵:血皇后崛起 Hellboy.2019.1080p.AMZN.WEBRip.DD5.1.x264-NTG 6.88 GiB

  [复制链接]

超级版主

高清币
16388
金钱
38115
鲜花
0
在线时间
11826 小时
最后登录
2019-7-23
发表于 2019-7-9 17:06:56 | 显示全部楼层 |阅读模式


◎译  名 地狱男爵:血皇后崛起/地狱男爵3/地狱怪客:血后的崛起(台)
◎片  名 Hellboy/Hellboy: Rise of the Blood Queen/Hellboy - Call of Darkness
◎年  代 2019
◎国  家 美国
◎类  别 动作/冒险/奇幻
◎语  言 英语
◎IMDb评分 5.3/10 from 19990 users
◎IMDB链接 https://www.imdb.com/title/tt2274648/
◎片  长 2 h 1 min
◎导  演 尼尔·马歇尔 Neil Marshall
◎主  演 大卫·哈伯 David Harbour
       米拉·乔沃维奇 Milla Jovovich
       金大贤 Daniel Dae Kim
       伊恩·麦柯肖恩 Ian McShane


◎简  介 

  地狱男爵是二战期间被纳粹召唤到人间的恶魔之子,在被布鲁姆教授收养长大后逐渐学会了融入人类世界,成为了一名超自然力量调查员,然而一起关于末世的预言,令他陷入重重危机。与此同时,史上最强大的邪恶女巫血皇后正企图打破封印重返人间,并让瘟疫席卷地球。地狱男爵与通灵少女爱丽丝以及上校本·戴米奥,因此共同踏上了阻止血皇后的征程。


  1. Video
  2. ID : 1
  3. Format : AVC
  4. Format/Info : Advanced Video Codec
  5. Format profile : High@L4
  6. Format settings : CABAC / 4 Ref Frames
  7. Format settings, CABAC : Yes
  8. Format settings, ReFrames : 4 frames
  9. Codec ID : V_MPEG4/ISO/AVC
  10. Duration : 2 h 1 min
  11. Bit rate mode : Constant
  12. Bit rate : 7 492 kb/s
  13. Nominal bit rate : 10 000 kb/s
  14. Width : 1 920 pixels
  15. Height : 800 pixels
  16. Display aspect ratio : 2.40:1
  17. Frame rate mode : Constant
  18. Frame rate : 23.976 (24000/1001) FPS
  19. Color space : YUV
  20. Chroma subsampling : 4:2:0
  21. Bit depth : 8 bits
  22. Scan type : Progressive
  23. Bits/(Pixel*Frame) : 0.203
  24. Stream size : 6.33 GiB (92%)
  25. Language : English
  26. Default : Yes
  27. Forced : No
  28. Color range : Limited
  29. Color primaries : BT.709
  30. Transfer characteristics : BT.709
  31. Matrix coefficients : BT.709

  32. Audio
  33. ID : 2
  34. Format : AC-3
  35. Format/Info : Audio Coding 3
  36. Commercial name : Dolby Digital
  37. Codec ID : A_AC3
  38. Duration : 2 h 1 min
  39. Bit rate mode : Constant
  40. Bit rate : 640 kb/s
  41. Channel(s) : 6 channels
  42. Channel layout : L R C LFE Ls Rs
  43. Sampling rate : 48.0 kHz
  44. Frame rate : 31.250 FPS (1536 SPF)
  45. Bit depth : 16 bits
  46. Compression mode : Lossy
  47. Stream size : 554 MiB (8%)
  48. Language : English
  49. Service kind : Complete Main
  50. Default : Yes
  51. Forced : No

  52. Text #1
  53. ID : 3
  54. Format : UTF-8
  55. Codec ID : S_TEXT/UTF8
  56. Codec ID/Info : UTF-8 Plain Text
  57. Duration : 2 h 0 min
  58. Bit rate : 53 b/s
  59. Count of elements : 1528
  60. Stream size : 46.7 KiB (0%)
  61. Language : English
  62. Default : No
  63. Forced : No

  64. Text #2
  65. ID : 4
  66. Format : UTF-8
  67. Codec ID : S_TEXT/UTF8
  68. Codec ID/Info : UTF-8 Plain Text
  69. Duration : 2 h 0 min
  70. Bit rate : 59 b/s
  71. Count of elements : 1899
  72. Stream size : 52.9 KiB (0%)
  73. Title : SDH
  74. Language : English
  75. Default : No
  76. Forced : No
复制代码








游客,如果您要查看本帖隐藏内容请回复,您还可以免扣高清币免回复下载:https://www.85lou.com/plugin.php?id=threed_vip



回复

使用道具 举报

superstar

高清币
923
金钱
11609
鲜花
0
在线时间
575 小时
最后登录
2019-7-21
发表于 2019-7-9 23:26:54 | 显示全部楼层

这个帖子不回对不起自己!我想我是一天也不能离开中国高清论坛
回复 支持 1 反对 0

使用道具 举报

知名艺人

高清币
113
金钱
186
鲜花
0
在线时间
12 小时
最后登录
2019-7-18
发表于 2019-7-9 23:22:52 | 显示全部楼层
楼主发贴辛苦了,谢谢楼主分享!我觉得中国高清论坛是注册对了!
回复 支持 1 反对 0

使用道具 举报

跑龙套

高清币
11
金钱
13
鲜花
0
在线时间
0 小时
最后登录
2019-7-9
发表于 2019-7-9 23:26:51 | 显示全部楼层
███████箩-莉-汁-源【 www.pe4.me 】 ██████
回复 支持 1 反对 0

使用道具 举报

金鸡奖主角

高清币
1911
金钱
2491
鲜花
0
在线时间
262 小时
最后登录
2019-7-23
发表于 2019-7-9 18:28:27 | 显示全部楼层
多謝 ! 給大家分享 !

回复 支持 1 反对 0

使用道具 举报

金鸡奖主角

高清币
577
金钱
3162
鲜花
0
在线时间
774 小时
最后登录
2019-7-23
发表于 2019-7-9 18:27:16 | 显示全部楼层
楼主发贴辛苦了,谢谢楼主分享!我觉得中国高清论坛是注册对了!
回复 支持 1 反对 0

使用道具 举报

金鸡奖主角

高清币
1196
金钱
5040
鲜花
0
在线时间
466 小时
最后登录
2019-7-23
发表于 2019-7-9 18:27:07 | 显示全部楼层

感谢楼主的无私分享!要想中国高清论坛好 就靠你我他
回复 支持 1 反对 0

使用道具 举报

金鸡奖主角

高清币
18
金钱
4260
鲜花
0
在线时间
850 小时
最后登录
2019-7-22
发表于 2019-7-9 18:27:03 | 显示全部楼层

这东西我收了!谢谢楼主!中国高清论坛真好!
回复 支持 1 反对 0

使用道具 举报

人气偶像

高清币
14
金钱
580
鲜花
0
在线时间
49 小时
最后登录
2019-7-23
发表于 2019-7-9 18:25:58 | 显示全部楼层

这东西我收了!谢谢楼主!中国高清论坛真好!
回复 支持 1 反对 0

使用道具 举报

知名艺人

高清币
8
金钱
130
鲜花
0
在线时间
26 小时
最后登录
2019-7-17
发表于 2019-7-9 18:25:36 | 显示全部楼层
WEB版本的也不错。。。。BD的更好。
回复 支持 1 反对 0

使用道具 举报

超级明星

高清币
1377
金钱
7845
鲜花
0
在线时间
3123 小时
最后登录
2019-7-23
发表于 2019-7-9 17:08:53 | 显示全部楼层
楼主发贴辛苦了,谢谢楼主分享!我觉得中国高清论坛是注册对了!
回复 支持 反对

使用道具 举报

金鸡奖主角

高清币
0
金钱
3352
鲜花
0
在线时间
1200 小时
最后登录
2019-7-23
发表于 2019-7-9 17:11:45 | 显示全部楼层

我看不错噢 谢谢楼主!中国高清论坛越来越好!
回复 支持 反对

使用道具 举报

金鸡奖主角

高清币
0
金钱
3352
鲜花
0
在线时间
1200 小时
最后登录
2019-7-23
发表于 2019-7-9 17:12:29 | 显示全部楼层

既然你诚信诚意的推荐了,那我就勉为其难的看看吧!中国高清论坛不走平凡路。
回复 支持 反对

使用道具 举报

天王巨星

高清币
3
金钱
2864
鲜花
0
在线时间
1595 小时
最后登录
2019-7-23
发表于 2019-7-9 17:13:33 | 显示全部楼层

感谢楼主的无私分享!要想中国高清论坛好 就靠你我他
回复 支持 反对

使用道具 举报

人气偶像

高清币
3
金钱
1136
鲜花
0
在线时间
644 小时
最后登录
2019-7-23
发表于 2019-7-9 17:17:07 | 显示全部楼层
楼主发贴辛苦了,谢谢楼主分享!我觉得中国高清论坛是注册对了!
回复 支持 反对

使用道具 举报

知名艺人

高清币
59
金钱
160
鲜花
0
在线时间
48 小时
最后登录
2019-7-23
发表于 2019-7-9 17:20:17 | 显示全部楼层
这个帖子不回对不起自己!我想我是一天也不能离开中国高清论坛
回复 支持 反对

使用道具 举报

superstar

高清币
1437
金钱
9459
鲜花
0
在线时间
2377 小时
最后登录
2019-7-23
发表于 2019-7-9 17:23:22 手机频道 | 显示全部楼层
每天都来中国高清论坛看看有什么电影
回复 支持 反对

使用道具 举报

影坛巨星

高清币
2783
金钱
9722
鲜花
0
在线时间
2288 小时
最后登录
2019-7-23
发表于 2019-7-9 17:23:27 | 显示全部楼层
楼主发贴辛苦了,谢谢楼主分享!我觉得中国高清论坛是注册对了!
回复 支持 反对

使用道具 举报

懒得打字嘛,点击右侧快捷回复 【右侧内容,后台自定义】
您需要登录后才可以回帖 登录 | 立即注册

本版积分规则

QQ|手机版|小黑屋|中国高清论坛 ( 黔ICP备16007815号-1 )

GMT+8, 2019-7-23 14:59 , Processed in 0.077397 second(s), 26 queries .

Powered by Discuz! X3.4

© 2001-2017 Comsenz Inc.

快速回复 返回顶部 返回列表