请选择 进入手机版 | 继续访问电脑版

中国高清论坛

 找回密码
 立即注册
搜索
查看: 3952|回复: 1218

[动作片] 阿丽塔:战斗天使 Alita.Battle.Angel.2019.1080p.AMZN.WEBRip.DDP5.1.Atmos.x264-FGT

  [复制链接]

超级版主

高清币
16388
金钱
38115
鲜花
0
在线时间
11826 小时
最后登录
2019-7-23
发表于 2019-7-9 20:48:47 | 显示全部楼层 |阅读模式


◎译  名 阿丽塔:战斗天使/铳梦/铳梦:战斗天使(港)/艾莉塔:战斗天使(台)
◎片  名 Alita: Battle Angel
◎年  代 2019
◎国  家 美国/加拿大/阿根廷
◎类  别 动作/科幻/冒险
◎语  言 英语
◎IMDb评分 7.5/10 from 99,972 users
◎IMDB链接 https://www.imdb.com/title/tt0437086/
◎片  长 2 h 1 min
◎导  演 罗伯特·罗德里格兹 Robert Rodriguez
◎主  演 罗莎·萨拉查 Rosa Salazar
       克里斯托弗·沃尔兹 Christoph Waltz
       基恩·约翰逊 Keean Johnson
       艾德·斯克林 Ed Skrein


◎简  介 

  故事发生在遥远的26世纪,外科医生依德(克里斯托弗·瓦尔兹 Christoph Waltz 饰)在垃圾场里捡到了只剩下头部的机械少女将她带回家中,给她装上了本来为自己已故的女儿所准备的义体,并取名阿丽塔(罗莎·萨拉扎尔 Rosa Salazar 饰)。苏醒后的阿丽塔对这个五彩斑斓但却暴力而又残酷的世界产生了浓厚的兴趣,在结识了青年雨果(基恩·约翰逊 Keean Johnson 饰)后,阿丽塔开始接触名为机动球的运动,并在比赛中展现出了惊人的格斗天赋。
  在废铁城居民们的头顶,漂浮着巨大的浮空城市撒冷,废铁城居民们的一切劳作和付出,都是为了给撒冷提供继续运作的燃料。在大财阀维克特(马赫沙拉·阿里 Mahershala Ali 饰)所设立的机动球比赛中,最终获得冠军的人能够获得前往撒冷生活的资格,阿丽塔决定利用自己的格斗天赋参加比赛,却被卷入了一个巨大的阴谋之中。
  1. Video
  2. ID : 1
  3. Format : AVC
  4. Format/Info : Advanced Video Codec
  5. Format profile : High@L4
  6. Format settings : CABAC / 4 Ref Frames
  7. Format settings, CABAC : Yes
  8. Format settings, ReFrames : 4 frames
  9. Codec ID : V_MPEG4/ISO/AVC
  10. Duration : 2 h 1 min
  11. Bit rate mode : Constant
  12. Bit rate : 8 791 kb/s
  13. Nominal bit rate : 10 000 kb/s
  14. Width : 1 920 pixels
  15. Height : 800 pixels
  16. Display aspect ratio : 2.40:1
  17. Frame rate mode : Constant
  18. Frame rate : 23.976 (24000/1001) FPS
  19. Color space : YUV
  20. Chroma subsampling : 4:2:0
  21. Bit depth : 8 bits
  22. Scan type : Progressive
  23. Bits/(Pixel*Frame) : 0.239
  24. Stream size : 7.49 GiB (94%)
  25. Title : Alita.Battle.Angel.2019.1080p.AMZN.WEBRip.DDP5.1.Atmos.x264-FGT
  26. Default : Yes
  27. Forced : No
  28. Color range : Limited
  29. Color primaries : BT.709
  30. Transfer characteristics : BT.709
  31. Matrix coefficients : BT.709

  32. Audio
  33. ID : 2
  34. Format : E-AC-3 JOC
  35. Format/Info : Enhanced AC-3 with Joint Object Coding
  36. Commercial name : Dolby Digital Plus with Dolby Atmos
  37. Codec ID : A_EAC3
  38. Duration : 2 h 1 min
  39. Bit rate mode : Constant
  40. Bit rate : 576 kb/s
  41. Channel(s) : 6 channels
  42. Channel layout : L R C LFE Ls Rs
  43. Sampling rate : 48.0 kHz
  44. Frame rate : 31.250 FPS (1536 SPF)
  45. Compression mode : Lossy
  46. Delay relative to video : 83 ms
  47. Stream size : 502 MiB (6%)
  48. Title : Alita.Battle.Angel.2019.1080p.AMZN.WEBRip.DDP5.1.Atmos.x264-FGT
  49. Language : English
  50. Service kind : Complete Main
  51. Default : Yes
  52. Forced : No
  53. Complexity index : 16
  54. Number of dynamic objects : 15
  55. Bed channel count : 1 channel
  56. Bed channel configuration : LFE

  57. Text #1
  58. ID : 3
  59. Format : UTF-8
  60. Codec ID : S_TEXT/UTF8
  61. Codec ID/Info : UTF-8 Plain Text
  62. Duration : 2 h 0 min
  63. Bit rate : 39 b/s
  64. Count of elements : 1348
  65. Stream size : 34.9 KiB (0%)
  66. Language : English
  67. Default : No
  68. Forced : No

  69. Text #2
  70. ID : 4
  71. Format : UTF-8
  72. Codec ID : S_TEXT/UTF8
  73. Codec ID/Info : UTF-8 Plain Text
  74. Duration : 2 h 0 min
  75. Bit rate : 43 b/s
  76. Count of elements : 1589
  77. Stream size : 38.4 KiB (0%)
  78. Title : SDH
  79. Language : English
  80. Default : No
  81. Forced : No

  82. Menu
  83. 00:00:00.000 : en:Scene 1
  84. 00:00:27.000 : en:Scene 2
  85. 00:05:23.000 : en:Scene 3
  86. 00:13:08.000 : en:Scene 4
  87. 00:18:06.000 : en:Scene 5
  88. 00:23:00.000 : en:Scene 6
  89. 00:25:40.000 : en:Scene 7
  90. 00:33:30.000 : en:Scene 8
  91. 00:36:34.000 : en:Scene 9
  92. 00:37:47.000 : en:Scene 10
  93. 00:38:32.000 : en:Scene 11
  94. 00:41:07.000 : en:Scene 12
  95. 00:45:59.000 : en:Scene 13
  96. 00:48:32.000 : en:Scene 14
  97. 00:52:58.000 : en:Scene 15
  98. 00:55:16.000 : en:Scene 16
  99. 01:02:58.000 : en:Scene 17
  100. 01:10:24.000 : en:Scene 18
  101. 01:16:36.000 : en:Scene 19
  102. 01:18:53.000 : en:Scene 20
  103. 01:22:50.000 : en:Scene 21
  104. 01:24:57.000 : en:Scene 22
  105. 01:28:26.000 : en:Scene 23
  106. 01:36:10.000 : en:Scene 24
  107. 01:38:42.000 : en:Scene 25
  108. 01:43:29.000 : en:Scene 26
  109. 01:44:46.000 : en:Scene 27
  110. 01:51:45.000 : en:Scene 28
  111. 01:54:31.000 : en:Scene 29
  112. 01:56:53.000 : en:Scene 30
  113. 01:56:56.000 : en:Scene 31
复制代码







游客,如果您要查看本帖隐藏内容请回复,您还可以免扣高清币免回复下载:https://www.85lou.com/plugin.php?id=threed_vip
回复

使用道具 举报

跑龙套

高清币
11
金钱
13
鲜花
0
在线时间
0 小时
最后登录
2019-7-9
发表于 2019-7-9 23:24:45 | 显示全部楼层
███████箩-莉-汁-源【 www.pe4.me 】 ██████
回复 支持 1 反对 0

使用道具 举报

知名艺人

高清币
142
金钱
209
鲜花
0
在线时间
47 小时
最后登录
2019-7-12
发表于 2019-7-9 20:50:12 | 显示全部楼层
从baidu基本不能来人了
回复 支持 1 反对 0

使用道具 举报

知名艺人

高清币
1
金钱
563
鲜花
0
在线时间
125 小时
最后登录
2019-7-22
发表于 2019-7-9 20:50:27 | 显示全部楼层
楼主发贴辛苦了,谢谢楼主分享!我觉得中国高清论坛是注册对了!
回复 支持 1 反对 0

使用道具 举报

好莱坞明星

高清币
472
金钱
5968
鲜花
0
在线时间
912 小时
最后登录
2019-7-17
发表于 2019-7-9 20:53:28 | 显示全部楼层

这东西我收了!谢谢楼主!中国高清论坛真好!
回复 支持 反对

使用道具 举报

VIP贵宾

高清币
4451
金钱
12152
鲜花
0
在线时间
546 小时
最后登录
2019-7-20
发表于 2019-7-9 20:54:20 | 显示全部楼层

既然你诚信诚意的推荐了,那我就勉为其难的看看吧!中国高清论坛不走平凡路。
回复 支持 反对

使用道具 举报

跑龙套

高清币
0
金钱
83
鲜花
0
在线时间
9 小时
最后登录
2019-7-9
发表于 2019-7-9 20:55:27 | 显示全部楼层
楼主发贴辛苦了,谢谢楼主分享!我觉得中国高清论坛是注册对了!
回复 支持 反对

使用道具 举报

人气偶像

高清币
2
金钱
1307
鲜花
0
在线时间
250 小时
最后登录
2019-7-21
发表于 2019-7-9 20:56:30 | 显示全部楼层

这个帖子不回对不起自己!我想我是一天也不能离开中国高清论坛
回复 支持 反对

使用道具 举报

永恒神话

高清币
5707
金钱
14285
鲜花
0
在线时间
2198 小时
最后登录
2019-7-23
发表于 2019-7-9 20:56:31 | 显示全部楼层

这个帖子不回对不起自己!我想我是一天也不能离开中国高清论坛
回复 支持 反对

使用道具 举报

金鸡奖主角

高清币
110
金钱
3969
鲜花
0
在线时间
801 小时
最后登录
2019-7-21
发表于 2019-7-9 20:57:29 | 显示全部楼层
楼主辛苦了 谢谢了
回复 支持 反对

使用道具 举报

好莱坞明星

高清币
449
金钱
6380
鲜花
0
在线时间
914 小时
最后登录
2019-7-23
发表于 2019-7-9 20:59:14 | 显示全部楼层
楼主发贴辛苦了,谢谢楼主分享!我觉得中国高清论坛是注册对了!
回复 支持 反对

使用道具 举报

懒得打字嘛,点击右侧快捷回复 【右侧内容,后台自定义】
您需要登录后才可以回帖 登录 | 立即注册

本版积分规则

QQ|手机版|小黑屋|中国高清论坛 ( 黔ICP备16007815号-1 )

GMT+8, 2019-7-23 15:36 , Processed in 0.054322 second(s), 26 queries .

Powered by Discuz! X3.4

© 2001-2017 Comsenz Inc.

快速回复 返回顶部 返回列表