请选择 进入手机版 | 继续访问电脑版

中国高清论坛

 找回密码
 立即注册
搜索
查看: 906|回复: 148

[恐怖片] 拉入地狱 Pulled.to.Hell.2019.1080p.BluRay.x264.DTS-CHD 12.35 GiB

  [复制链接]

超级版主

高清币
16388
金钱
38115
鲜花
0
在线时间
11826 小时
最后登录
2019-7-23
发表于 2019-7-11 22:47:45 | 显示全部楼层 |阅读模式


◎译  名 拉入地狱
◎片  名 Pulled to Hell/Pull
◎年  代 2019
◎国  家 美国
◎类  别 恐怖/悬疑/惊悚
◎语  言 英语
◎IMDb评分 3.3/10 from 27 users
◎IMDB链接 https://www.imdb.com/title/tt3619972/
◎片  长 2 h 1 min
◎导  演 James Ryan Gary
◎主  演 Toochukwu T.C. Anyachonkeya...Kyle
       Dina B....Victim
       Andrew Beachum...Kellum's Person Assistant
       Whit Blanchard ...Roy


◎简  介

  Charles and Kyle are two private investigators that specialize in missing persons cases. Mickey and her team get in way over there heads when they cross a serial killer who has three very nasty pets that have a taste for human flesh. The team must do what the can to stay alive and to save the killer's next prey before its too late.

  1. Video
  2. ID : 1
  3. Format : AVC
  4. Format/Info : Advanced Video Codec
  5. Format profile : High@L4.1
  6. Format settings : CABAC / 4 Ref Frames
  7. Format settings, CABAC : Yes
  8. Format settings, ReFrames : 4 frames
  9. Codec ID : V_MPEG4/ISO/AVC
  10. Duration : 1 h 47 min
  11. Bit rate : 15.0 Mb/s
  12. Width : 1 920 pixels
  13. Height : 1 080 pixels
  14. Display aspect ratio : 16:9
  15. Frame rate mode : Constant
  16. Frame rate : 23.976 (24000/1001) FPS
  17. Color space : YUV
  18. Chroma subsampling : 4:2:0
  19. Bit depth : 8 bits
  20. Scan type : Progressive
  21. Bits/(Pixel*Frame) : 0.302
  22. Stream size : 11.2 GiB (91%)
  23. Writing library : x264 core 157 r2867+150 7e91e0e t_mod_Custom_2 [8-bit@all X86_64]
  24. Encoding settings : cabac=1 / ref=4 / deblock=1:-3:-3 / analyse=0x3:0x133 / me=umh / subme=11 / psy=1 / fade_compensate=0.00 / psy_rd=1.00:0.00 / mixed_ref=1 / me_range=64 / chroma_me=1 / trellis=2 / 8x8dct=1 / cqm=0 / deadzone=21,11 / fast_pskip=0 / chroma_qp_offset=-3 / threads=24 / lookahead_threads=4 / sliced_threads=0 / nr=0 / decimate=1 / interlaced=0 / bluray_compat=0 / constrained_intra=0 / fgo=0 / bframes=8 / b_pyramid=2 / b_adapt=2 / b_bias=0 / direct=3 / weightb=1 / open_gop=0 / weightp=2 / keyint=250 / keyint_min=23 / scenecut=40 / intra_refresh=0 / rc=2pass / mbtree=0 / bitrate=15000 / ratetol=1.0 / qcomp=0.70 / qpmin=0:0:0 / qpmax=69:69:69 / qpstep=4 / cplxblur=20.0 / qblur=0.5 / ip_ratio=1.40 / pb_ratio=1.30 / aq=3:1.00 / aq-sensitivity=10.00 / aq-factor=1.00:1.00:1.00 / aq2=0 / aq3=0
  25. Language : English
  26. Default : Yes
  27. Forced : No

  28. Audio
  29. ID : 2
  30. Format : DTS
  31. Format/Info : Digital Theater Systems
  32. Codec ID : A_DTS
  33. Duration : 1 h 47 min
  34. Bit rate mode : Constant
  35. Bit rate : 1 509 kb/s
  36. Channel(s) : 2 channels
  37. Channel layout : L R
  38. Sampling rate : 48.0 kHz
  39. Frame rate : 93.750 FPS (512 SPF)
  40. Bit depth : 24 bits
  41. Compression mode : Lossy
  42. Stream size : 1.13 GiB (9%)
  43. Language : English
  44. Default : Yes
  45. Forced : No

  46. Text
  47. ID : 3
  48. Format : UTF-8
  49. Codec ID : S_TEXT/UTF8
  50. Codec ID/Info : UTF-8 Plain Text
  51. Duration : 1 h 43 min
  52. Bit rate : 30 b/s
  53. Count of elements : 871
  54. Stream size : 23.4 KiB (0%)
  55. Language : English
  56. Default : Yes
  57. Forced : No
复制代码






游客,如果您要查看本帖隐藏内容请回复,您还可以免扣高清币免回复下载:https://www.85lou.com/plugin.php?id=threed_vip
回复

使用道具 举报

超级明星

高清币
45
金钱
8053
鲜花
0
在线时间
1288 小时
最后登录
2019-7-22
发表于 2019-7-11 23:07:25 | 显示全部楼层

楼主太厉害了!楼主,电影应该很好看我觉得中国高清论坛真是个好地方!
回复 支持 2 反对 0

使用道具 举报

知名艺人

高清币
40
金钱
96
鲜花
0
在线时间
17 小时
最后登录
2019-7-21
发表于 2019-7-11 23:10:29 | 显示全部楼层
楼主太厉害了 REQ0334328
回复 支持 2 反对 0

使用道具 举报

知名艺人

高清币
142
金钱
209
鲜花
0
在线时间
47 小时
最后登录
2019-7-12
发表于 2019-7-11 22:48:30 | 显示全部楼层
每天靠搜索能有500-900的ip
回复 支持 反对

使用道具 举报

知名艺人

高清币
3
金钱
371
鲜花
0
在线时间
105 小时
最后登录
2019-7-23
发表于 2019-7-11 22:51:10 | 显示全部楼层

楼主太厉害了!楼主,电影应该很好看我觉得中国高清论坛真是个好地方!
回复 支持 反对

使用道具 举报

超级明星

高清币
7
金钱
8799
鲜花
0
在线时间
4192 小时
最后登录
2019-7-23
发表于 2019-7-11 23:02:17 | 显示全部楼层

楼主太厉害了!楼主,电影应该很好看我觉得中国高清论坛真是个好地方!
回复 支持 反对

使用道具 举报

金鸡奖主角

高清币
931
金钱
2111
鲜花
0
在线时间
506 小时
最后登录
2019-7-23
发表于 2019-7-11 23:05:03 | 显示全部楼层
楼主发贴辛苦了,谢谢楼主分享!我觉得中国高清论坛是注册对了!
回复 支持 反对

使用道具 举报

天王巨星

高清币
339
金钱
2110
鲜花
0
在线时间
324 小时
最后登录
2019-7-19
发表于 2019-7-11 23:07:19 | 显示全部楼层
感谢楼主的无私分享!
回复 支持 反对

使用道具 举报

天王巨星

高清币
339
金钱
2110
鲜花
0
在线时间
324 小时
最后登录
2019-7-19
发表于 2019-7-11 23:14:56 | 显示全部楼层
感谢楼主分享精彩电影!
回复 支持 反对

使用道具 举报

天王巨星

高清币
339
金钱
2110
鲜花
0
在线时间
324 小时
最后登录
2019-7-19
发表于 2019-7-11 23:17:42 | 显示全部楼层
每天都来中国高清论坛看看有什么电影!
回复 支持 反对

使用道具 举报

懒得打字嘛,点击右侧快捷回复 【右侧内容,后台自定义】
您需要登录后才可以回帖 登录 | 立即注册

本版积分规则

QQ|手机版|小黑屋|中国高清论坛 ( 黔ICP备16007815号-1 )

GMT+8, 2019-7-23 14:46 , Processed in 0.053333 second(s), 26 queries .

Powered by Discuz! X3.4

© 2001-2017 Comsenz Inc.

快速回复 返回顶部 返回列表