请选择 进入手机版 | 继续访问电脑版

中国高清论坛

 找回密码
 立即注册
搜索
查看: 903|回复: 204

[犯罪片] 幸福城市 Cities.of.Last.Things.2018.CHINESE.1080p.NF.WEBRip.DDP5.1.x264-BdC

  [复制链接]

超级版主

高清币
16388
金钱
38115
鲜花
0
在线时间
11826 小时
最后登录
2019-7-23
发表于 2019-7-11 22:52:10 | 显示全部楼层 |阅读模式


◎译  名 幸福城市
◎片  名 Cities of Last Things
◎年  代 2019
◎国  家 中国台湾/中国/美国/法国
◎类  别 犯罪/剧情/科幻
◎语  言 英语
◎IMDb评分 6.0/10 from 223 users
◎IMDB链接 https://www.imdb.com/title/tt4397342/
◎片  长 1 h 46 min
◎导  演 何蔚庭 Wi Ding Ho
◎主  演 李鸿其 Hong-Chi Lee
       黄璐 Lu Huang
       丁宁 Ning Ding
       张国柱 Kuo-Chu Chang


◎简  介

  影片故事讲述主人公在同一个城市的三个时代、三个季节、三个夜晚中所经历的事件。

获奖记录

台湾电影金马奖(2018;第55届)
提名
·金马奖-最佳男配角奖李鸿其 Hong-Chi Lee  
·金马奖-最佳女配角奖丁宁 Ning Ding  
·金马奖-最佳原创剧本何蔚庭 Wi Ding Ho  
·金马奖-最佳新演员谢章颖 Chang-Ying Hsieh  

  1. Video
  2. ID : 1
  3. Format : AVC
  4. Format/Info : Advanced Video Codec
  5. Format profile : Main@L4
  6. Format settings : CABAC / 3 Ref Frames
  7. Format settings, CABAC : Yes
  8. Format settings, ReFrames : 3 frames
  9. Codec ID : V_MPEG4/ISO/AVC
  10. Duration : 1 h 46 min
  11. Bit rate mode : Variable
  12. Bit rate : 7 500 kb/s
  13. Maximum bit rate : 11.2 Mb/s
  14. Width : 1 920 pixels
  15. Height : 1 080 pixels
  16. Display aspect ratio : 16:9
  17. Frame rate mode : Constant
  18. Frame rate : 24.000 FPS
  19. Color space : YUV
  20. Chroma subsampling : 4:2:0
  21. Bit depth : 8 bits
  22. Scan type : Progressive
  23. Bits/(Pixel*Frame) : 0.151
  24. Stream size : 5.52 GiB (92%)
  25. Writing library : x264 core 148 r2715 7e75228
  26. Encoding settings : cabac=1 / ref=3 / deblock=1:0:0 / analyse=0x1:0x111 / me=umh / subme=10 / psy=1 / psy_rd=1.00:0.00 / mixed_ref=1 / me_range=24 / chroma_me=1 / trellis=2 / 8x8dct=0 / cqm=0 / deadzone=21,11 / fast_pskip=1 / chroma_qp_offset=-2 / threads=8 / lookahead_threads=1 / sliced_threads=0 / nr=0 / decimate=1 / interlaced=0 / bluray_compat=0 / stitchable=1 / constrained_intra=0 / bframes=2 / b_pyramid=0 / b_adapt=2 / b_bias=0 / direct=3 / weightb=1 / open_gop=0 / weightp=2 / keyint=48 / keyint_min=25 / scenecut=0 / intra_refresh=0 / rc_lookahead=48 / rc=2pass / mbtree=1 / bitrate=7500 / ratetol=1.0 / qcomp=0.50 / qpmin=6 / qpmax=51 / qpstep=4 / cplxblur=20.0 / qblur=0.5 / vbv_maxrate=11250 / vbv_bufsize=15000 / nal_hrd=vbr / filler=0 / ip_ratio=1.40 / aq=1:1.00
  27. Default : Yes
  28. Forced : No

  29. Audio
  30. ID : 2
  31. Format : E-AC-3
  32. Format/Info : Enhanced AC-3
  33. Commercial name : Dolby Digital Plus
  34. Codec ID : A_EAC3
  35. Duration : 1 h 46 min
  36. Bit rate mode : Constant
  37. Bit rate : 640 kb/s
  38. Channel(s) : 6 channels
  39. Channel layout : L R C LFE Ls Rs
  40. Sampling rate : 48.0 kHz
  41. Frame rate : 31.250 FPS (1536 SPF)
  42. Compression mode : Lossy
  43. Stream size : 487 MiB (8%)
  44. Service kind : Complete Main
  45. Default : Yes
  46. Forced : No

  47. Text #1
  48. ID : 3
  49. Format : UTF-8
  50. Codec ID : S_TEXT/UTF8
  51. Codec ID/Info : UTF-8 Plain Text
  52. Duration : 1 h 45 min
  53. Bit rate : 35 b/s
  54. Count of elements : 1201
  55. Stream size : 27.5 KiB (0%)
  56. Title : English [SDH]
  57. Language : English
  58. Default : No
  59. Forced : No

  60. Text #2
  61. ID : 4
  62. Format : UTF-8
  63. Codec ID : S_TEXT/UTF8
  64. Codec ID/Info : UTF-8 Plain Text
  65. Duration : 1 h 46 min
  66. Bit rate : 23 b/s
  67. Count of elements : 767
  68. Stream size : 18.3 KiB (0%)
  69. Title : Castilian [Full]
  70. Language : Spanish
  71. Default : No
  72. Forced : No

  73. Text #3
  74. ID : 5
  75. Format : UTF-8
  76. Codec ID : S_TEXT/UTF8
  77. Codec ID/Info : UTF-8 Plain Text
  78. Duration : 1 h 46 min
  79. Bit rate : 25 b/s
  80. Count of elements : 767
  81. Stream size : 20.0 KiB (0%)
  82. Title : Spanish [Full]
  83. Language : Spanish
  84. Default : No
  85. Forced : No

  86. Text #4
  87. ID : 6
  88. Format : UTF-8
  89. Codec ID : S_TEXT/UTF8
  90. Codec ID/Info : UTF-8 Plain Text
  91. Duration : 1 h 46 min
  92. Bit rate : 26 b/s
  93. Count of elements : 825
  94. Stream size : 20.5 KiB (0%)
  95. Title : French [Full]
  96. Language : French
  97. Default : No
  98. Forced : No

  99. Text #5
  100. ID : 7
  101. Format : UTF-8
  102. Codec ID : S_TEXT/UTF8
  103. Codec ID/Info : UTF-8 Plain Text
  104. Duration : 1 h 46 min
  105. Bit rate : 22 b/s
  106. Count of elements : 766
  107. Stream size : 17.7 KiB (0%)
  108. Title : German [Full]
  109. Language : German
  110. Default : No
  111. Forced : No

  112. Text #6
  113. ID : 8
  114. Format : UTF-8
  115. Codec ID : S_TEXT/UTF8
  116. Codec ID/Info : UTF-8 Plain Text
  117. Duration : 1 h 46 min
  118. Bit rate : 25 b/s
  119. Count of elements : 754
  120. Stream size : 19.6 KiB (0%)
  121. Title : Italian [Full]
  122. Language : Italian
  123. Default : No
  124. Forced : No

  125. Text #7
  126. ID : 9
  127. Format : UTF-8
  128. Codec ID : S_TEXT/UTF8
  129. Codec ID/Info : UTF-8 Plain Text
  130. Duration : 1 h 46 min
  131. Bit rate : 23 b/s
  132. Count of elements : 767
  133. Stream size : 18.0 KiB (0%)
  134. Title : Portuguese [Full]
  135. Language : Portuguese
  136. Default : No
  137. Forced : No

  138. Text #8
  139. ID : 10
  140. Format : UTF-8
  141. Codec ID : S_TEXT/UTF8
  142. Codec ID/Info : UTF-8 Plain Text
  143. Duration : 1 h 46 min
  144. Bit rate : 23 b/s
  145. Count of elements : 767
  146. Stream size : 18.0 KiB (0%)
  147. Title : Brazilian Portuguese [Full]
  148. Language : Portuguese
  149. Default : No
  150. Forced : No

  151. Text #9
  152. ID : 11
  153. Format : UTF-8
  154. Codec ID : S_TEXT/UTF8
  155. Codec ID/Info : UTF-8 Plain Text
  156. Duration : 1 h 46 min
  157. Bit rate : 22 b/s
  158. Count of elements : 766
  159. Stream size : 17.4 KiB (0%)
  160. Title : Polish [Full]
  161. Language : Polish
  162. Default : No
  163. Forced : No

  164. Text #10
  165. ID : 12
  166. Format : UTF-8
  167. Codec ID : S_TEXT/UTF8
  168. Codec ID/Info : UTF-8 Plain Text
  169. Duration : 1 h 46 min
  170. Bit rate : 23 b/s
  171. Count of elements : 767
  172. Stream size : 18.5 KiB (0%)
  173. Title : Turkish [Full]
  174. Language : Turkish
  175. Default : Yes
  176. Forced : No

  177. Text #11
  178. ID : 13
  179. Format : UTF-8
  180. Codec ID : S_TEXT/UTF8
  181. Codec ID/Info : UTF-8 Plain Text
  182. Duration : 1 h 46 min
  183. Bit rate : 23 b/s
  184. Count of elements : 686
  185. Stream size : 18.2 KiB (0%)
  186. Title : Swedish [Full]
  187. Language : Swedish
  188. Default : No
  189. Forced : No

  190. Text #12
  191. ID : 14
  192. Format : UTF-8
  193. Codec ID : S_TEXT/UTF8
  194. Codec ID/Info : UTF-8 Plain Text
  195. Duration : 1 h 46 min
  196. Bit rate : 21 b/s
  197. Count of elements : 755
  198. Stream size : 16.6 KiB (0%)
  199. Title : Danish [Full]
  200. Language : Danish
  201. Default : No
  202. Forced : No

  203. Text #13
  204. ID : 15
  205. Format : UTF-8
  206. Codec ID : S_TEXT/UTF8
  207. Codec ID/Info : UTF-8 Plain Text
  208. Duration : 1 h 46 min
  209. Bit rate : 25 b/s
  210. Count of elements : 617
  211. Stream size : 20.2 KiB (0%)
  212. Title : Finnish [Full]
  213. Language : Finnish
  214. Default : No
  215. Forced : No

  216. Text #14
  217. ID : 16
  218. Format : UTF-8
  219. Codec ID : S_TEXT/UTF8
  220. Codec ID/Info : UTF-8 Plain Text
  221. Duration : 1 h 46 min
  222. Bit rate : 22 b/s
  223. Count of elements : 677
  224. Stream size : 17.9 KiB (0%)
  225. Title : Dutch [Full]
  226. Language : Dutch
  227. Default : No
  228. Forced : No

  229. Text #15
  230. ID : 17
  231. Format : UTF-8
  232. Codec ID : S_TEXT/UTF8
  233. Codec ID/Info : UTF-8 Plain Text
  234. Duration : 1 h 46 min
  235. Bit rate : 38 b/s
  236. Count of elements : 758
  237. Stream size : 30.3 KiB (0%)
  238. Title : Greek [Full]
  239. Language : Greek
  240. Default : No
  241. Forced : No

  242. Text #16
  243. ID : 18
  244. Format : UTF-8
  245. Codec ID : S_TEXT/UTF8
  246. Codec ID/Info : UTF-8 Plain Text
  247. Duration : 1 h 40 min
  248. Bit rate : 43 b/s
  249. Count of elements : 766
  250. Stream size : 32.2 KiB (0%)
  251. Title : Hebrew [Full]
  252. Language : Hebrew
  253. Default : No
  254. Forced : No

  255. Text #17
  256. ID : 19
  257. Format : UTF-8
  258. Codec ID : S_TEXT/UTF8
  259. Codec ID/Info : UTF-8 Plain Text
  260. Duration : 1 h 40 min
  261. Bit rate : 44 b/s
  262. Count of elements : 766
  263. Stream size : 32.6 KiB (0%)
  264. Title : Arabic [Full]
  265. Language : Arabic
  266. Default : No
  267. Forced : No

  268. Text #18
  269. ID : 20
  270. Format : UTF-8
  271. Codec ID : S_TEXT/UTF8
  272. Codec ID/Info : UTF-8 Plain Text
  273. Duration : 1 h 40 min
  274. Bit rate : 31 b/s
  275. Count of elements : 766
  276. Stream size : 23.2 KiB (0%)
  277. Title : Romanian [Full]
  278. Language : Romanian
  279. Default : No
  280. Forced : No

  281. Text #19
  282. ID : 21
  283. Format : UTF-8
  284. Codec ID : S_TEXT/UTF8
  285. Codec ID/Info : UTF-8 Plain Text
  286. Duration : 1 h 46 min
  287. Bit rate : 21 b/s
  288. Count of elements : 767
  289. Stream size : 16.8 KiB (0%)
  290. Title : Indonesian [Full]
  291. Language : Indonesian
  292. Default : No
  293. Forced : No

  294. Text #20
  295. ID : 22
  296. Format : UTF-8
  297. Codec ID : S_TEXT/UTF8
  298. Codec ID/Info : UTF-8 Plain Text
  299. Duration : 1 h 41 min
  300. Bit rate : 36 b/s
  301. Count of elements : 767
  302. Stream size : 27.2 KiB (0%)
  303. Title : Vietnamese [Full]
  304. Language : Vietnamese
  305. Default : No
  306. Forced : No

  307. Text #21
  308. ID : 23
  309. Format : UTF-8
  310. Codec ID : S_TEXT/UTF8
  311. Codec ID/Info : UTF-8 Plain Text
  312. Duration : 1 h 40 min
  313. Bit rate : 65 b/s
  314. Count of elements : 766
  315. Stream size : 48.4 KiB (0%)
  316. Title : Thai [Full]
  317. Language : Thai
  318. Default : No
  319. Forced : No

  320. Text #22
  321. ID : 24
  322. Format : UTF-8
  323. Codec ID : S_TEXT/UTF8
  324. Codec ID/Info : UTF-8 Plain Text
  325. Duration : 1 h 40 min
  326. Bit rate : 34 b/s
  327. Count of elements : 766
  328. Stream size : 25.2 KiB (0%)
  329. Title : Korean [Full]
  330. Language : Korean
  331. Default : No
  332. Forced : No

  333. Text #23
  334. ID : 25
  335. Format : UTF-8
  336. Codec ID : S_TEXT/UTF8
  337. Codec ID/Info : UTF-8 Plain Text
  338. Duration : 1 h 8 min
  339. Bit rate : 5 b/s
  340. Count of elements : 96
  341. Stream size : 2.75 KiB (0%)
  342. Title : Chinese (Simplified) [Forced]
  343. Language : Chinese
  344. Default : No
  345. Forced : Yes

  346. Text #24
  347. ID : 26
  348. Format : UTF-8
  349. Codec ID : S_TEXT/UTF8
  350. Codec ID/Info : UTF-8 Plain Text
  351. Duration : 1 h 40 min
  352. Bit rate : 30 b/s
  353. Count of elements : 786
  354. Stream size : 22.3 KiB (0%)
  355. Title : Chinese (Simplified) [Full]
  356. Language : Chinese
  357. Default : No
  358. Forced : No

  359. Text #25
  360. ID : 27
  361. Format : UTF-8
  362. Codec ID : S_TEXT/UTF8
  363. Codec ID/Info : UTF-8 Plain Text
  364. Duration : 1 h 40 min
  365. Bit rate : 31 b/s
  366. Count of elements : 933
  367. Stream size : 22.8 KiB (0%)
  368. Title : Chinese (Traditional) [Full]
  369. Language : Chinese
  370. Default : No
  371. Forced : No

  372. Text #26
  373. ID : 28
  374. Format : UTF-8
  375. Codec ID : S_TEXT/UTF8
  376. Codec ID/Info : UTF-8 Plain Text
  377. Duration : 1 h 40 min
  378. Bit rate : 29 b/s
  379. Count of elements : 778
  380. Stream size : 21.8 KiB (0%)
  381. Title : Japanese [Full]
  382. Language : Japanese
  383. Default : No
  384. Forced : No
复制代码


[size=10.6667px]
[size=10.6667px]
[size=10.6667px]

游客,如果您要查看本帖隐藏内容请回复,您还可以免扣高清币免回复下载:https://www.85lou.com/plugin.php?id=threed_vip

回复

使用道具 举报

永恒神话

高清币
8367
金钱
11323
鲜花
0
在线时间
1702 小时
最后登录
2019-7-23
发表于 2019-7-11 23:13:31 | 显示全部楼层

这个帖子不回对不起自己!我想我是一天也不能离开中国高清论坛
回复 支持 2 反对 0

使用道具 举报

天王巨星

高清币
339
金钱
2110
鲜花
0
在线时间
324 小时
最后登录
2019-7-19
发表于 2019-7-11 23:14:34 | 显示全部楼层
感谢楼主分享精彩电影!
回复 支持 2 反对 0

使用道具 举报

知名艺人

高清币
142
金钱
209
鲜花
0
在线时间
47 小时
最后登录
2019-7-12
发表于 2019-7-11 22:52:57 | 显示全部楼层
偶啥时才能熬出头啊.
回复 支持 1 反对 0

使用道具 举报

超级明星

高清币
7
金钱
8799
鲜花
0
在线时间
4192 小时
最后登录
2019-7-23
发表于 2019-7-11 23:01:34 | 显示全部楼层

楼主太厉害了!楼主,电影应该很好看我觉得中国高清论坛真是个好地方!
回复 支持 反对

使用道具 举报

人气偶像

高清币
64
金钱
889
鲜花
0
在线时间
125 小时
最后登录
2019-7-20
发表于 2019-7-11 23:02:52 | 显示全部楼层

楼主太厉害了!楼主,电影应该很好看我觉得中国高清论坛真是个好地方!
回复 支持 反对

使用道具 举报

天王巨星

高清币
339
金钱
2110
鲜花
0
在线时间
324 小时
最后登录
2019-7-19
发表于 2019-7-11 23:06:59 | 显示全部楼层
既然你诚信诚意的推荐了,那我就勉为其难的看看吧!
回复 支持 反对

使用道具 举报

超级明星

高清币
45
金钱
8053
鲜花
0
在线时间
1288 小时
最后登录
2019-7-22
发表于 2019-7-11 23:07:07 | 显示全部楼层
楼主发贴辛苦了,谢谢楼主分享!我觉得中国高清论坛是注册对了!
回复 支持 反对

使用道具 举报

金鸡奖主角

高清币
18
金钱
3265
鲜花
0
在线时间
675 小时
最后登录
2019-7-23
发表于 2019-7-11 23:12:05 | 显示全部楼层
楼主发贴辛苦了,谢谢楼主分享
回复 支持 反对

使用道具 举报

金鸡奖主角

高清币
518
金钱
3961
鲜花
0
在线时间
1584 小时
最后登录
2019-7-22
发表于 2019-7-11 23:13:15 | 显示全部楼层
非常喜欢,好
回复 支持 反对

使用道具 举报

懒得打字嘛,点击右侧快捷回复 【右侧内容,后台自定义】
您需要登录后才可以回帖 登录 | 立即注册

本版积分规则

QQ|手机版|小黑屋|中国高清论坛 ( 黔ICP备16007815号-1 )

GMT+8, 2019-7-23 15:13 , Processed in 0.057124 second(s), 26 queries .

Powered by Discuz! X3.4

© 2001-2017 Comsenz Inc.

快速回复 返回顶部 返回列表