请选择 进入手机版 | 继续访问电脑版

中国高清论坛

 找回密码
 立即注册
搜索
查看: 14578|回复: 3001

[悬疑片] 作家的谎言 [普通话] D.O.T.N.2019.CHINESE.1080p.BluRay.X264-WiKi 11.24 GiB

  [复制链接]

超级版主

高清币
17054
金钱
39553
鲜花
0
在线时间
12126 小时
最后登录
2019-9-18
发表于 2019-8-5 09:52:15 | 显示全部楼层 |阅读模式



◎译  名 作家的谎言/作家的谎言:笔忠诱罪
◎片  名 Deception of the Novelist
◎年  代 2017
◎国  家 中国香港
◎类  别 悬疑
◎语  言 普通话
◎IMDb评分 6.3/10 from 7 users
◎IMDB链接 https://www.imdb.com/title/tt10545040/
◎片  长 1 h 29 min
◎导  演 孙立基 Christopher Sun Lap Key
◎主  演 张建声 Justin Cheung
       松冈李那 Linah Matsuoka
       何佩瑜 Jeana Ho
       陈嘉莉 Kelly Chen




◎简  介

  被誉为最出色治愈系作家-徐哲,年轻、有楼、做着自己喜欢的事,是成功的典范。他的文字被誉为心灵鸡汤,抚慰着无数读者的心灵。从他的作品,可以知道他是个善良、有原则、爱妻顾家的好男人。然而,他的财富,却是承继父亲所得。

  一日,在徐哲家楼上的单位来了一个新租客,为徐哲平淡似水的生活带来巨大冲击;新租客Elaine是个美艳动人的时尚女子。某夜,Elaine突然陈尸屋苑平台。警方接手调查,徐哲直认自己被Elaine勒索,暴怒之下错手推了Elaine落楼。案件本来应该完结,但警方的心理专家苏Sir在细心观察徐哲之下,认为他在说谎,而且整件事还存在不少疑点。

  为寻找真相,苏Sir穷追不舍。终于发现徐哲太太琦琦早知道徐哲与Elaine有染,这自然令苏Sir怀疑琦琦因爱成恨,继而杀人报复。究竟这是因为琦琦对徐哲的不忠展开报复,还是案中有案,局中有局?

  1. Video
  2. ID : 1
  3. Format : AVC
  4. Format/Info : Advanced Video Codec
  5. Format profile : High@L4.1
  6. Format settings : CABAC / 5 Ref Frames
  7. Format settings, CABAC : Yes
  8. Format settings, Reference frames : 5 frames
  9. Codec ID : V_MPEG4/ISO/AVC
  10. Duration : 1 h 29 min
  11. Bit rate : 17.3 Mb/s
  12. Width : 1 920 pixels
  13. Height : 802 pixels
  14. Display aspect ratio : 2.40:1
  15. Frame rate mode : Constant
  16. Frame rate : 24.000 FPS
  17. Color space : YUV
  18. Chroma subsampling : 4:2:0
  19. Bit depth : 8 bits
  20. Scan type : Progressive
  21. Bits/(Pixel*Frame) : 0.468
  22. Stream size : 10.8 GiB (96%)
  23. Writing library : x264 core 157 r2867+103 0d6443f t_mod_Custom_2 [8-bit@all X86_64]
  24. Encoding settings : cabac=1 / ref=5 / deblock=1:-3:-3 / analyse=0x3:0x133 / me=umh / subme=10 / psy=1 / fade_compensate=0.00 / psy_rd=1.00:0.00 / mixed_ref=1 / me_range=32 / chroma_me=1 / trellis=2 / 8x8dct=1 / cqm=0 / deadzone=21,11 / fast_pskip=0 / chroma_qp_offset=-2 / threads=12 / lookahead_threads=2 / sliced_threads=0 / nr=0 / decimate=0 / interlaced=0 / bluray_compat=0 / constrained_intra=0 / fgo=0 / bframes=8 / b_pyramid=2 / b_adapt=2 / b_bias=0 / direct=3 / weightb=1 / open_gop=0 / weightp=2 / keyint=250 / keyint_min=24 / scenecut=40 / intra_refresh=0 / rc=2pass / mbtree=0 / bitrate=17300 / ratetol=1.0 / qcomp=0.60 / qpmin=0:0:0 / qpmax=69:69:69 / qpstep=4 / cplxblur=20.0 / qblur=0.5 / ip_ratio=1.30 / pb_ratio=1.20 / aq=1:0.85 / aq-sensitivity=10.00 / aq-factor=1.00:1.00:1.00 / aq2=0 / aq3=0 / zones=119063,124559,b=1.3/125987,129225,b=0.5
  25. Language : English
  26. Default : Yes
  27. Forced : No

  28. Audio
  29. ID : 2
  30. Format : AC-3
  31. Format/Info : Audio Coding 3
  32. Commercial name : Dolby Digital
  33. Codec ID : A_AC3
  34. Duration : 1 h 29 min
  35. Bit rate mode : Constant
  36. Bit rate : 640 kb/s
  37. Channel(s) : 6 channels
  38. Channel layout : L R C LFE Ls Rs
  39. Sampling rate : 48.0 kHz
  40. Frame rate : 31.250 FPS (1536 SPF)
  41. Bit depth : 16 bits
  42. Compression mode : Lossy
  43. Stream size : 411 MiB (4%)
  44. Title : Cantonese
  45. Language : Chinese
  46. Service kind : Complete Main
  47. Default : Yes
  48. Forced : No

  49. Text #1
  50. ID : 3
  51. Format : UTF-8
  52. Codec ID : S_TEXT/UTF8
  53. Codec ID/Info : UTF-8 Plain Text
  54. Duration : 1 h 26 min
  55. Bit rate : 56 b/s
  56. Count of elements : 1334
  57. Stream size : 35.8 KiB (0%)
  58. Language : English
  59. Default : Yes
  60. Forced : No

  61. Text #2
  62. ID : 4
  63. Format : UTF-8
  64. Codec ID : S_TEXT/UTF8
  65. Codec ID/Info : UTF-8 Plain Text
  66. Duration : 1 h 26 min
  67. Bit rate : 52 b/s
  68. Count of elements : 1339
  69. Stream size : 33.0 KiB (0%)
  70. Title : CHS
  71. Language : Chinese
  72. Default : No
  73. Forced : No

  74. Text #3
  75. ID : 5
  76. Format : UTF-8
  77. Codec ID : S_TEXT/UTF8
  78. Codec ID/Info : UTF-8 Plain Text
  79. Duration : 1 h 26 min
  80. Bit rate : 52 b/s
  81. Count of elements : 1339
  82. Stream size : 33.0 KiB (0%)
  83. Title : CHT
  84. Language : Chinese
  85. Default : No
  86. Forced : No

  87. Menu
  88. 00:00:00.000 : en:00:00:00.000
  89. 00:07:34.125 : en:00:07:34.125
  90. 00:14:52.875 : en:00:14:52.875
  91. 00:23:17.125 : en:00:23:17.125
  92. 00:30:10.875 : en:00:30:10.875
  93. 00:36:48.208 : en:00:36:48.208
  94. 00:45:46.417 : en:00:45:46.417
  95. 00:53:22.542 : en:00:53:22.542
  96. 00:59:28.375 : en:00:59:28.375
  97. 01:06:15.542 : en:01:06:15.542
  98. 01:14:15.417 : en:01:14:15.417
  99. 01:22:01.000 : en:01:22:01.000
复制代码








游客,如果您要查看本帖隐藏内容请回复,您还可以免扣高清币免回复下载:https://www.85lou.com/plugin.php?id=wyfaka_url:url
回复

使用道具 举报

天王巨星

高清币
19
金钱
3488
鲜花
0
在线时间
1218 小时
最后登录
2019-9-16
发表于 2019-8-5 14:35:51 | 显示全部楼层

既然你诚信诚意的推荐了,那我就勉为其难的看看吧!中国高清论坛不走平凡路。
回复 支持 1 反对 0

使用道具 举报

天王巨星

高清币
19
金钱
3488
鲜花
0
在线时间
1218 小时
最后登录
2019-9-16
发表于 2019-8-5 14:36:08 | 显示全部楼层

既然你诚信诚意的推荐了,那我就勉为其难的看看吧!中国高清论坛不走平凡路。
回复 支持 1 反对 0

使用道具 举报

天王巨星

高清币
19
金钱
3488
鲜花
0
在线时间
1218 小时
最后登录
2019-9-16
发表于 2019-8-5 14:36:27 | 显示全部楼层

既然你诚信诚意的推荐了,那我就勉为其难的看看吧!中国高清论坛不走平凡路。
回复 支持 1 反对 0

使用道具 举报

金鸡奖主角

高清币
81
金钱
4242
鲜花
0
在线时间
543 小时
最后登录
2019-9-18
发表于 2019-8-5 14:36:38 | 显示全部楼层

这东西我收了!谢谢楼主!中国高清论坛真好!
回复 支持 1 反对 0

使用道具 举报

天王巨星

高清币
19
金钱
3488
鲜花
0
在线时间
1218 小时
最后登录
2019-9-16
发表于 2019-8-5 14:37:01 | 显示全部楼层

既然你诚信诚意的推荐了,那我就勉为其难的看看吧!中国高清论坛不走平凡路。
回复 支持 1 反对 0

使用道具 举报

天王巨星

高清币
19
金钱
3488
鲜花
0
在线时间
1218 小时
最后登录
2019-9-16
发表于 2019-8-5 14:37:17 | 显示全部楼层

既然你诚信诚意的推荐了,那我就勉为其难的看看吧!中国高清论坛不走平凡路。
回复 支持 1 反对 0

使用道具 举报

金鸡奖主角

高清币
81
金钱
4242
鲜花
0
在线时间
543 小时
最后登录
2019-9-18
发表于 2019-8-5 14:38:05 | 显示全部楼层

这个帖子不回对不起自己!我想我是一天也不能离开中国高清论坛
回复 支持 1 反对 0

使用道具 举报

superstar

高清币
0
金钱
10505
鲜花
0
在线时间
335 小时
最后登录
2019-9-16
发表于 2019-8-5 14:38:41 | 显示全部楼层

这个帖子不回对不起自己!我想我是一天也不能离开中国高清论坛
回复 支持 1 反对 0

使用道具 举报

superstar

高清币
0
金钱
10505
鲜花
0
在线时间
335 小时
最后登录
2019-9-16
发表于 2019-8-5 14:38:59 | 显示全部楼层

这东西我收了!谢谢楼主!中国高清论坛真好!
回复 支持 1 反对 0

使用道具 举报

影坛巨星

高清币
2935
金钱
10141
鲜花
0
在线时间
2385 小时
最后登录
2019-9-18
发表于 2019-8-5 09:53:37 | 显示全部楼层
楼主发贴辛苦了,谢谢楼主分享!我觉得中国高清论坛是注册对了!
回复 支持 反对

使用道具 举报

永恒神话

高清币
39909
金钱
79239
鲜花
0
在线时间
6810 小时
最后登录
2019-9-18
发表于 2019-8-5 09:57:22 | 显示全部楼层
楼主发贴辛苦了,谢谢楼主分享!我觉得中国高清论坛是注册对了!
回复 支持 反对

使用道具 举报

人气偶像

高清币
2
金钱
1666
鲜花
0
在线时间
472 小时
最后登录
2019-9-18
发表于 2019-8-5 10:00:06 | 显示全部楼层
楼主发贴辛苦了,谢谢楼主分享!我觉得中国高清论坛是注册对了!
回复 支持 反对

使用道具 举报

天王巨星

高清币
837
金钱
1260
鲜花
0
在线时间
248 小时
最后登录
2019-9-18
发表于 2019-8-5 10:04:28 | 显示全部楼层

楼主太厉害了!楼主,电影应该很好看我觉得中国高清论坛真是个好地方!
回复 支持 反对

使用道具 举报

永恒神话

高清币
9402
金钱
12744
鲜花
0
在线时间
1931 小时
最后登录
2019-9-18
发表于 2019-8-5 10:05:45 | 显示全部楼层

其实我一直觉得楼主的品味不错!呵呵!中国高清论坛太棒了!
回复 支持 反对

使用道具 举报

金鸡奖主角

高清币
371
金钱
5065
鲜花
0
在线时间
825 小时
最后登录
2019-9-18
发表于 2019-8-5 10:15:08 | 显示全部楼层
Thanks for sharing
回复 支持 反对

使用道具 举报

人气偶像

高清币
232
金钱
377
鲜花
0
在线时间
33 小时
最后登录
2019-9-16
发表于 2019-8-5 10:20:03 | 显示全部楼层

这东西我收了!谢谢楼主!中国高清论坛真好!
回复 支持 反对

使用道具 举报

superstar

高清币
3804
金钱
10863
鲜花
0
在线时间
796 小时
最后登录
2019-9-18
发表于 2019-8-5 10:29:27 | 显示全部楼层

楼主太厉害了!楼主,电影应该很好看我觉得中国高清论坛真是个好地方!
回复 支持 反对

使用道具 举报

人气偶像

高清币
15
金钱
1155
鲜花
0
在线时间
255 小时
最后登录
2019-9-18
发表于 2019-8-5 10:33:07 | 显示全部楼层

既然你诚信诚意的推荐了,那我就勉为其难的看看吧!中国高清论坛不走平凡路。
回复 支持 反对

使用道具 举报

懒得打字嘛,点击右侧快捷回复 【右侧内容,后台自定义】
您需要登录后才可以回帖 登录 | 立即注册

本版积分规则

QQ|手机版|小黑屋|中国高清论坛 ( 黔ICP备16007815号-1 )

GMT+8, 2019-9-18 23:21 , Processed in 0.074067 second(s), 27 queries .

Powered by Discuz! X3.4

© 2001-2017 Comsenz Inc.

快速回复 返回顶部 返回列表