请选择 进入手机版 | 继续访问电脑版

中国高清论坛

 找回密码
 立即注册
搜索
查看: 6442|回复: 2005

[冒险片] 阿拉丁/阿拉丁真人版 Aladdin.2019.1080p.HDRip.x264.DD5.1-SHITBOX 5.67 GiB

  [复制链接]

超级版主

高清币
16794
金钱
38990
鲜花
0
在线时间
12004 小时
最后登录
2019-8-24
发表于 2019-8-7 09:45:44 | 显示全部楼层 |阅读模式


◎译  名 阿拉丁/阿拉丁真人版
◎片  名 Aladdin
◎年  代 2019
◎国  家 美国
◎类  别 冒险/喜剧
◎语  言 英语
◎IMDb评分 7.4/10 from 88948 users
◎IMDB链接 https://www.imdb.com/title/tt6139732/
◎片  长 2 h 7 min
◎导  演 盖·里奇 Guy Ritchie
◎主  演 梅纳·玛索德 Mena Massoud
       娜奥米·斯科特 Naomi Scott
       威尔·史密斯 Will Smith
       马尔万·肯扎里 Marwan Kenzari


◎简  介

  真人版《阿拉丁》根据1992年的同名经典动画改编,从世界名著《一千零一夜》中汲取灵感。影片讲述在充满异域风情的古代阿拉伯王国,善良的穷小子阿拉丁和勇敢的茉莉公主浪漫邂逅,在可以满足主人三个愿望的灯神帮助下,两人踏上了一次寻找真爱和自我的魔幻冒险。

花絮

.《阿拉丁》的主要摄制工作在英国朗克劳斯和阿伯菲尔德摄影棚,以及约旦南部的哈希姆王国拍摄完成。此外,本片还专程到《阿拉伯的劳伦斯》的取景地约旦月亮谷和迪西谷,拍摄令人称奇的沙漠景致。

.本片艺术指导是艾美奖得主杰玛·杰克逊,沙漠之城阿格拉巴的灵感主要来自摩洛哥、波斯以及土耳其建筑风格,并融入了阿拉伯、印度及其他南亚文化特色元素,因为该城受到周边各个地区文化的影响。

.在杰玛·杰克逊的监督下,艺术设计部门在朗克劳斯摄影棚室外巨大的空地上搭建了阿格拉巴的外景,耗时15周。

.阿格拉巴的场景装饰包括各种马拉喀什风格的布料,织物以及雕刻品,颜色鲜艳的树木,金属,水果蔬菜以及一棵生长千年的橄榄树。

.阿格拉巴的庭院、集市摊位、狭窄小巷以及杂乱无序屋顶的设计,均为《一步之先》和《阿里王子》这两段音乐曲目中盛大的舞蹈编排和特技表演服务。

.《阿里王子》是整部制作中场面最大的曲目选段,有250名舞蹈表演者和超过200人临时演员团队参与其中。服装设计师迈克尔·威尔金森和他的团队为这些临时演员重新设计制作了超过200套表演服装。

.在阿拉丁作为阿里王子抵达皇宫的这场戏,工作人员用花朵搭建了高达30英尺的骆驼造型,一共使用了超过三万七千多朵花,并且搭建在配有混轮的金属底盘上。15名模型制作者花费三周才完成这个造型。

.摄影指导艾伦·斯图尔特在《阿里王子》登场的这段奢华至极的戏份中,设置了七个摄影机位,意图捕捉到这盛大游行中的方方面面。

.在歌曲《一步之先》片段中,为了捕捉阿拉丁在狭窄小巷和屋顶辗转腾跃时,以他为第一人称视角的运动画面,他在梅纳·马苏德的手腕上固定了一部GoPro运动相机。

.视觉特效小组为《阿里王子》这段戏制作了长达40分钟的动画分镜和视觉预览,仅为了给电影制作者们在真实摄制这段舞蹈时一个更为全面完整的概念。

.茉莉公主的在皇宫中闺房的设计也侧面反映出这个角色的智慧与勇敢。场景中尽是公主收集的各种书籍,地图,华丽的挂毯和艺术品。

.在设计茉莉公主闺房中的床笫时,为了容下公主和她的宠物老虎拉贾,设计师们加倍了床面大小。床罩是在巴基斯坦手工绣制的,为了纪念茉莉公主亡母位于南亚的祖国斯哈拉巴德。

.奇迹宝洞是结合实景和视觉特效共同打造的。洞穴内部搭建在朗克劳斯的摄影棚内,其中包括洞穴入口的巨大狮头以及覆盖着珠宝和各种其他珍奇的人造岩石造型。布景师蒂娜·琼斯从各地找来这些珠宝。

.《阿拉丁》片中几乎使用了现有的每一种视觉特效,包括角色动画,动作捕捉,场景画面拓展,数码虚拟环境和特效模拟。

.视觉特效总监查斯·加莱特为了实现《新世界》片段中的飞毯画面,制造了一个六轴液压平台。主角乘坐的“飞毯”是由手动输入设备控制的,在绿幕前拍摄出上下左右的飞行效果,再加上预先拍摄的背景。

.阿拉丁的小跟班阿布,是根据一只真实的卷尾猴原型,完全由数字技术制作的。

.造型和发型设计师克里斯丁·布兰道为扮演苏丹的纳维德·内加班创造了假发和胡子。而且都是根据演员原本的发色来上色,再混入他自己的毛发。每天化妆就要花上45分钟。
  1. Video
  2. ID : 1
  3. Format : AVC
  4. Format/Info : Advanced Video Codec
  5. Format profile : High@L4
  6. Format settings : CABAC / 4 Ref Frames
  7. Format settings, CABAC : Yes
  8. Format settings, Reference frames : 4 frames
  9. Codec ID : V_MPEG4/ISO/AVC
  10. Duration : 2 h 7 min
  11. Bit rate : 6 000 kb/s
  12. Width : 1 920 pixels
  13. Height : 1 080 pixels
  14. Display aspect ratio : 16:9
  15. Frame rate mode : Constant
  16. Frame rate : 23.976 (24000/1001) FPS
  17. Color space : YUV
  18. Chroma subsampling : 4:2:0
  19. Bit depth : 8 bits
  20. Scan type : Progressive
  21. Bits/(Pixel*Frame) : 0.121
  22. Stream size : 5.32 GiB (94%)
  23. Title : Aladdin.2019.1080p.HDRip.x264.DD5.1-SHITBOX
  24. Writing library : x264 core 152 r2854 e9a5903
  25. Encoding settings : cabac=1 / ref=3 / deblock=1:0:0 / analyse=0x3:0x133 / me=hex / subme=7 / psy=1 / psy_rd=1.00:0.00 / mixed_ref=1 / me_range=16 / chroma_me=1 / trellis=1 / 8x8dct=1 / cqm=0 / deadzone=21,11 / fast_pskip=1 / chroma_qp_offset=-2 / threads=24 / lookahead_threads=4 / sliced_threads=0 / nr=0 / decimate=1 / interlaced=0 / bluray_compat=0 / constrained_intra=0 / bframes=3 / b_pyramid=2 / b_adapt=1 / b_bias=0 / direct=1 / weightb=1 / open_gop=0 / weightp=2 / keyint=250 / keyint_min=25 / scenecut=40 / intra_refresh=0 / rc_lookahead=40 / rc=abr / mbtree=1 / bitrate=6000 / ratetol=1.0 / qcomp=0.60 / qpmin=10 / qpmax=51 / qpstep=4 / ip_ratio=1.40 / aq=1:1.00
  26. Default : Yes
  27. Forced : No

  28. Audio
  29. ID : 2
  30. Format : AC-3
  31. Format/Info : Audio Coding 3
  32. Commercial name : Dolby Digital
  33. Codec ID : A_AC3
  34. Duration : 2 h 7 min
  35. Bit rate mode : Constant
  36. Bit rate : 384 kb/s
  37. Channel(s) : 6 channels
  38. Channel layout : L R C LFE Ls Rs
  39. Sampling rate : 48.0 kHz
  40. Frame rate : 31.250 FPS (1536 SPF)
  41. Bit depth : 16 bits
  42. Compression mode : Lossy
  43. Stream size : 351 MiB (6%)
  44. Title : Aladdin.2019.1080p.HDRip.x264.DD5.1-SHITBOX
  45. Language : English
  46. Service kind : Complete Main
  47. Default : Yes
  48. Forced : No

  49. Text #1
  50. ID : 3
  51. Format : UTF-8
  52. Codec ID : S_TEXT/UTF8
  53. Codec ID/Info : UTF-8 Plain Text
  54. Duration : 1 h 58 min
  55. Bit rate : 50 b/s
  56. Count of elements : 1682
  57. Stream size : 43.4 KiB (0%)
  58. Language : English
  59. Default : Yes
  60. Forced : No

  61. Text #2
  62. ID : 4
  63. Format : UTF-8
  64. Codec ID : S_TEXT/UTF8
  65. Codec ID/Info : UTF-8 Plain Text
  66. Duration : 2 h 7 min
  67. Bit rate : 69 b/s
  68. Count of elements : 2433
  69. Stream size : 65.1 KiB (0%)
  70. Title : SDH
  71. Language : English
  72. Default : No
  73. Forced : No
复制代码








游客,如果您要查看本帖隐藏内容请回复,您还可以免扣高清币免回复下载:https://www.85lou.com/plugin.php?id=wyfaka_url:url
回复

使用道具 举报

金鸡奖主角

高清币
6
金钱
4772
鲜花
0
在线时间
2061 小时
最后登录
2019-8-23
发表于 2019-8-7 13:41:49 | 显示全部楼层
楼主发贴辛苦了,谢谢楼主分享!我觉得中国高清论坛是注册对了!
回复 支持 2 反对 0

使用道具 举报

金鸡奖主角

高清币
484
金钱
3367
鲜花
0
在线时间
543 小时
最后登录
2019-8-23
发表于 2019-8-7 13:48:59 | 显示全部楼层
楼主发贴辛苦了,谢谢楼主分享!我觉得中国高清论坛是注册对了!
回复 支持 2 反对 0

使用道具 举报

知名艺人

高清币
216
金钱
236
鲜花
0
在线时间
0 小时
最后登录
2019-8-16
发表于 2019-8-7 13:37:29 | 显示全部楼层
楼主,我太崇拜你了!我想我是一天也不能离开中国高清论坛
回复 支持 2 反对 0

使用道具 举报

超级明星

高清币
2072
金钱
4510
鲜花
0
在线时间
315 小时
最后登录
2019-8-24
发表于 2019-8-7 13:35:54 | 显示全部楼层

这东西我收了!谢谢楼主!中国高清论坛真好!
回复 支持 2 反对 0

使用道具 举报

人气偶像

高清币
30
金钱
745
鲜花
0
在线时间
132 小时
最后登录
2019-8-19
发表于 2019-8-7 09:46:54 | 显示全部楼层

楼主太厉害了!楼主,电影应该很好看我觉得中国高清论坛真是个好地方!
回复 支持 1 反对 0

使用道具 举报

跑龙套

高清币
29
金钱
43
鲜花
0
在线时间
3 小时
最后登录
2019-8-20
发表于 2019-8-7 13:39:15 | 显示全部楼层
幼 女 资 原【 www.tm4.xyz 】箩 利 资 原【 www.xm7.me
回复 支持 1 反对 0

使用道具 举报

人气偶像

高清币
3
金钱
1178
鲜花
0
在线时间
234 小时
最后登录
2019-8-21
发表于 2019-8-7 13:43:06 | 显示全部楼层
超级给力,感谢楼主
回复 支持 1 反对 0

使用道具 举报

超级明星

高清币
1194
金钱
6623
鲜花
0
在线时间
1364 小时
最后登录
2019-8-23
发表于 2019-8-7 09:46:58 | 显示全部楼层
楼主发贴辛苦了,谢谢楼主分享!我觉得中国高清论坛是注册对了!
回复 支持 反对

使用道具 举报

人气偶像

高清币
318
金钱
494
鲜花
0
在线时间
23 小时
最后登录
2019-8-23
发表于 2019-8-7 09:50:52 | 显示全部楼层

感谢楼主的无私分享!要想中国高清论坛好 就靠你我他
回复 支持 反对

使用道具 举报

人气偶像

高清币
361
金钱
1910
鲜花
0
在线时间
420 小时
最后登录
2019-8-22
发表于 2019-8-7 09:57:08 | 显示全部楼层
楼主发贴辛苦了,谢谢楼主分享!我觉得中国高清论坛是注册对了!
回复 支持 反对

使用道具 举报

永恒神话

高清币
10710
金钱
16417
鲜花
0
在线时间
1081 小时
最后登录
2019-8-23
发表于 2019-8-7 09:57:09 | 显示全部楼层
楼主发贴辛苦了,谢谢楼主分享!我觉得中国高清论坛是注册对了!
回复 支持 反对

使用道具 举报

知名艺人

高清币
50
金钱
211
鲜花
0
在线时间
26 小时
最后登录
2019-8-23
发表于 2019-8-7 09:59:05 | 显示全部楼层
楼主太厉害了!楼主,电影应该很好看我觉得中国高清论坛真是个好地方!
回复 支持 反对

使用道具 举报

天王巨星

高清币
715
金钱
1164
鲜花
0
在线时间
162 小时
最后登录
2019-8-24
发表于 2019-8-7 09:59:15 | 显示全部楼层

其实我一直觉得楼主的品味不错!呵呵!中国高清论坛太棒了!
回复 支持 反对

使用道具 举报

永恒神话

高清币
8625
金钱
17204
鲜花
0
在线时间
1977 小时
最后登录
2019-8-23
发表于 2019-8-7 10:02:23 | 显示全部楼层
楼主发贴辛苦了,谢谢楼主分享!我觉得中国高清论坛是注册对了!
回复 支持 反对

使用道具 举报

天王巨星

高清币
0
金钱
2655
鲜花
0
在线时间
845 小时
最后登录
2019-8-24
发表于 2019-8-7 10:02:36 | 显示全部楼层
楼主发贴辛苦了,谢谢楼主分享!我觉得中国高清论坛是注册对了!
回复 支持 反对

使用道具 举报

懒得打字嘛,点击右侧快捷回复 【右侧内容,后台自定义】
您需要登录后才可以回帖 登录 | 立即注册

本版积分规则

QQ|手机版|小黑屋|中国高清论坛 ( 黔ICP备16007815号-1 )

GMT+8, 2019-8-24 02:01 , Processed in 0.066817 second(s), 26 queries .

Powered by Discuz! X3.4

© 2001-2017 Comsenz Inc.

快速回复 返回顶部 返回列表